  0
SECTION
  2
HEADER
  9
$ACADVER
  1
AC1014
  9
$ACADMAINTVER
 70
     0
  9
$DWGCODEPAGE
  3
ANSI_932
  9
$INSBASE
 10
0.0
 20
0.0
 30
0.0
  9
$EXTMIN
 10
-473.980063
 20
-271.990411
 30
0.0
  9
$EXTMAX
 10
2716.199534
 20
2100.803126
 30
0.0
  9
$LIMMIN
 10
0.0
 20
0.0
  9
$LIMMAX
 10
2000.0
 20
1000.0
  9
$ORTHOMODE
 70
     1
  9
$REGENMODE
 70
     1
  9
$FILLMODE
 70
     1
  9
$QTEXTMODE
 70
     0
  9
$MIRRTEXT
 70
     1
  9
$DRAGMODE
 70
     2
  9
$LTSCALE
 40
3.367003
  9
$OSMODE
 70
     0
  9
$ATTMODE
 70
     1
  9
$TEXTSIZE
 40
20.0
  9
$TRACEWID
 40
1.0
  9
$TEXTSTYLE
  7
STANDARD
  9
$CLAYER
  8
0
  9
$CELTYPE
  6
BYLAYER
  9
$CECOLOR
 62
   256
  9
$CELTSCALE
 40
1.0
  9
$DELOBJ
 70
     1
  9
$DISPSILH
 70
     0
  9
$DIMSCALE
 40
3.367003
  9
$DIMASZ
 40
2.5
  9
$DIMEXO
 40
0.625
  9
$DIMDLI
 40
3.75
  9
$DIMRND
 40
0.0
  9
$DIMDLE
 40
0.0
  9
$DIMEXE
 40
1.25
  9
$DIMTP
 40
0.0
  9
$DIMTM
 40
0.0
  9
$DIMTXT
 40
2.5
  9
$DIMCEN
 40
2.5
  9
$DIMTSZ
 40
0.0
  9
$DIMTOL
 70
     0
  9
$DIMLIM
 70
     0
  9
$DIMTIH
 70
     0
  9
$DIMTOH
 70
     0
  9
$DIMSE1
 70
     0
  9
$DIMSE2
 70
     0
  9
$DIMTAD
 70
     1
  9
$DIMZIN
 70
     8
  9
$DIMBLK
  1

  9
$DIMASO
 70
     1
  9
$DIMSHO
 70
     1
  9
$DIMPOST
  1

  9
$DIMAPOST
  1

  9
$DIMALT
 70
     0
  9
$DIMALTD
 70
     4
  9
$DIMALTF
 40
0.0394
  9
$DIMLFAC
 40
1.0
  9
$DIMTOFL
 70
     1
  9
$DIMTVP
 40
0.0
  9
$DIMTIX
 70
     0
  9
$DIMSOXD
 70
     0
  9
$DIMSAH
 70
     0
  9
$DIMBLK1
  1

  9
$DIMBLK2
  1

  9
$DIMSTYLE
  2
STANDARD_WS
  9
$DIMCLRD
 70
     0
  9
$DIMCLRE
 70
     0
  9
$DIMCLRT
 70
     0
  9
$DIMTFAC
 40
1.0
  9
$DIMGAP
 40
0.625
  9
$DIMJUST
 70
     0
  9
$DIMSD1
 70
     0
  9
$DIMSD2
 70
     0
  9
$DIMTOLJ
 70
     1
  9
$DIMTZIN
 70
     0
  9
$DIMALTZ
 70
     0
  9
$DIMALTTZ
 70
     0
  9
$DIMFIT
 70
     3
  9
$DIMUPT
 70
     0
  9
$DIMUNIT
 70
     2
  9
$DIMDEC
 70
     4
  9
$DIMTDEC
 70
     4
  9
$DIMALTU
 70
     8
  9
$DIMALTTD
 70
     4
  9
$DIMTXSTY
  7
STANDARD
  9
$DIMAUNIT
 70
     0
  9
$LUNITS
 70
     2
  9
$LUPREC
 70
     4
  9
$SKETCHINC
 40
1.0
  9
$FILLETRAD
 40
33.670034
  9
$AUNITS
 70
     0
  9
$AUPREC
 70
     0
  9
$MENU
  1
acad
  9
$ELEVATION
 40
0.0
  9
$PELEVATION
 40
0.0
  9
$THICKNESS
 40
0.0
  9
$LIMCHECK
 70
     0
  9
$BLIPMODE
 70
     0
  9
$CHAMFERA
 40
33.670034
  9
$CHAMFERB
 40
33.670034
  9
$CHAMFERC
 40
67.340067
  9
$CHAMFERD
 40
0.0
  9
$SKPOLY
 70
     0
  9
$TDCREATE
 40
2452618.701731597
  9
$TDUPDATE
 40
2453762.536073380
  9
$TDINDWG
 40
0.7297593750
  9
$TDUSRTIMER
 40
0.7297593750
  9
$USRTIMER
 70
     1
  9
$ANGBASE
 50
0.0
  9
$ANGDIR
 70
     0
  9
$PDMODE
 70
     0
  9
$PDSIZE
 40
0.0
  9
$PLINEWID
 40
0.0
  9
$COORDS
 70
     1
  9
$SPLFRAME
 70
     0
  9
$SPLINETYPE
 70
     6
  9
$SPLINESEGS
 70
     8
  9
$ATTDIA
 70
     0
  9
$ATTREQ
 70
     1
  9
$HANDLING
 70
     1
  9
$HANDSEED
  5
1652
  9
$SURFTAB1
 70
     6
  9
$SURFTAB2
 70
     6
  9
$SURFTYPE
 70
     6
  9
$SURFU
 70
     6
  9
$SURFV
 70
     6
  9
$UCSNAME
  2

  9
$UCSORG
 10
0.0
 20
0.0
 30
0.0
  9
$UCSXDIR
 10
1.0
 20
0.0
 30
0.0
  9
$UCSYDIR
 10
0.0
 20
1.0
 30
0.0
  9
$PUCSNAME
  2

  9
$PUCSORG
 10
0.0
 20
0.0
 30
0.0
  9
$PUCSXDIR
 10
1.0
 20
0.0
 30
0.0
  9
$PUCSYDIR
 10
0.0
 20
1.0
 30
0.0
  9
$USERI1
 70
     0
  9
$USERI2
 70
     0
  9
$USERI3
 70
     0
  9
$USERI4
 70
     0
  9
$USERI5
 70
     0
  9
$USERR1
 40
0.0
  9
$USERR2
 40
0.0
  9
$USERR3
 40
0.0
  9
$USERR4
 40
0.0
  9
$USERR5
 40
0.0
  9
$WORLDVIEW
 70
     1
  9
$SHADEDGE
 70
     3
  9
$SHADEDIF
 70
    70
  9
$TILEMODE
 70
     1
  9
$MAXACTVP
 70
    48
  9
$PINSBASE
 10
0.0
 20
0.0
 30
0.0
  9
$PLIMCHECK
 70
     0
  9
$PEXTMIN
 10
1.000000E+20
 20
1.000000E+20
 30
1.000000E+20
  9
$PEXTMAX
 10
-1.000000E+20
 20
-1.000000E+20
 30
-1.000000E+20
  9
$PLIMMIN
 10
0.0
 20
0.0
  9
$PLIMMAX
 10
420.0
 20
297.0
  9
$UNITMODE
 70
     0
  9
$VISRETAIN
 70
     1
  9
$PLINEGEN
 70
     0
  9
$PSLTSCALE
 70
     1
  9
$TREEDEPTH
 70
  3020
  9
$PICKSTYLE
 70
     1
  9
$CMLSTYLE
  2
STANDARD
  9
$CMLJUST
 70
     0
  9
$CMLSCALE
 40
20.0
  9
$PROXYGRAPHICS
 70
     1
  9
$MEASUREMENT
 70
     1
  0
ENDSEC
  0
SECTION
  2
CLASSES
  0
CLASS
  1
DICTIONARYVAR
  2
AcDbDictionaryVar
  3
"AutoCAD"
 90
        0
280
     0
281
     0
  0
CLASS
  1
LWPOLYLINE
  2
AcDbPolyline
  3
"AutoCAD"
 90
        0
280
     0
281
     1
  0
ENDSEC
  0
SECTION
  2
TABLES
  0
TABLE
  2
VPORT
  5
8
100
AcDbSymbolTable
 70
     1
  0
VPORT
  5
164C
100
AcDbSymbolTableRecord
100
AcDbViewportTableRecord
  2
*ACTIVE
 70
     0
 10
0.0
 20
0.0
 11
1.0
 21
1.0
 12
1644.453286
 22
38.700657
 13
0.0
 23
0.0
 14
34.0
 24
34.0
 15
34.0
 25
34.0
 16
0.0
 26
0.0
 36
1.0
 17
0.0
 27
0.0
 37
0.0
 40
1004.502182
 41
1.681818
 42
50.0
 43
0.0
 44
0.0
 50
0.0
 51
0.0
 71
     0
 72
   100
 73
     1
 74
     1
 75
     0
 76
     1
 77
     0
 78
     0
  0
ENDTAB
  0
TABLE
  2
LTYPE
  5
5
100
AcDbSymbolTable
 70
     4
  0
LTYPE
  5
12
100
AcDbSymbolTableRecord
100
AcDbLinetypeTableRecord
  2
BYBLOCK
 70
     0
  3

 72
    65
 73
     0
 40
0.0
  0
LTYPE
  5
13
100
AcDbSymbolTableRecord
100
AcDbLinetypeTableRecord
  2
BYLAYER
 70
     0
  3

 72
    65
 73
     0
 40
0.0
  0
LTYPE
  5
14
100
AcDbSymbolTableRecord
100
AcDbLinetypeTableRecord
  2
CONTINUOUS
 70
     0
  3
Solid line
 72
    65
 73
     0
 40
0.0
  0
LTYPE
  5
38
100
AcDbSymbolTableRecord
100
AcDbLinetypeTableRecord
  2
CENTER2
 70
     0
  3
Center (.5x) ___ _ ___ _ ___ _ ___ _ ___ _ ___
 72
    65
 73
     4
 40
28.575
 49
19.05
 74
     0
 49
-3.175
 74
     0
 49
3.175
 74
     0
 49
-3.175
 74
     0
  0
LTYPE
  5
39
100
AcDbSymbolTableRecord
100
AcDbLinetypeTableRecord
  2
DASHED2
 70
     0
  3
Dashed (.5x) _ _ _ _ _ _ _ _ _ _ _ _ _ _ _ _ _
 72
    65
 73
     2
 40
9.525
 49
6.35
 74
     0
 49
-3.175
 74
     0
  0
LTYPE
  5
3A
100
AcDbSymbolTableRecord
100
AcDbLinetypeTableRecord
  2
HIDDEN2
 70
     0
  3
Hidden (.5x) _ _ _ _ _ _ _ _ _ _ _ _ _ _ _ _ _
 72
    65
 73
     2
 40
4.7625
 49
3.175
 74
     0
 49
-1.5875
 74
     0
  0
ENDTAB
  0
TABLE
  2
LAYER
  5
2
100
AcDbSymbolTable
 70
     2
  0
LAYER
  5
E
100
AcDbSymbolTableRecord
100
AcDbLayerTableRecord
  2
0
 70
     0
 62
     7
  6
CONTINUOUS
  0
LAYER
  5
13E
100
AcDbSymbolTableRecord
100
AcDbLayerTableRecord
  2
DEFPOINTS
 70
     0
 62
     7
  6
CONTINUOUS
  0
ENDTAB
  0
TABLE
  2
STYLE
  5
3
100
AcDbSymbolTable
 70
     2
  0
STYLE
  5
F
100
AcDbSymbolTableRecord
100
AcDbTextStyleTableRecord
  2
STANDARD
 70
     0
 40
20.0
 41
1.0
 50
0.0
 71
     0
 42
20.0
  3
txt.shx
  4

  0
STYLE
  5
37
100
AcDbSymbolTableRecord
100
AcDbTextStyleTableRecord
  2

 70
     1
 40
0.0
 41
1.0
 50
0.0
 71
     0
 42
8.417508
  3
ltypeshp.shx
  4

  0
ENDTAB
  0
TABLE
  2
VIEW
  5
6
100
AcDbSymbolTable
 70
     0
  0
ENDTAB
  0
TABLE
  2
UCS
  5
7
100
AcDbSymbolTable
 70
     0
  0
ENDTAB
  0
TABLE
  2
APPID
  5
9
100
AcDbSymbolTable
 70
     3
  0
APPID
  5
10
100
AcDbSymbolTableRecord
100
AcDbRegAppTableRecord
  2
ACAD
 70
     0
  0
APPID
  5
24
100
AcDbSymbolTableRecord
100
AcDbRegAppTableRecord
  2
CONTENTTABDATA
 70
     0
  0
APPID
  5
25
100
AcDbSymbolTableRecord
100
AcDbRegAppTableRecord
  2
CONTENTCURRENTTAB
 70
     0
  0
ENDTAB
  0
TABLE
  2
DIMSTYLE
  5
A
100
AcDbSymbolTable
 70
     2
  0
DIMSTYLE
105
1D
100
AcDbSymbolTableRecord
100
AcDbDimStyleTableRecord
  2
STANDARD
 70
     0
  3

  4

  5

  6

  7

 40
1.0
 41
0.18
 42
0.0625
 43
0.38
 44
0.18
 45
0.0
 46
0.0
 47
0.0
 48
0.0
140
0.18
141
0.09
142
0.0
143
25.4
144
1.0
145
0.0
146
1.0
147
0.09
 71
     0
 72
     0
 73
     1
 74
     1
 75
     0
 76
     0
 77
     0
 78
     0
170
     0
171
     2
172
     0
173
     0
174
     0
175
     0
176
     0
177
     0
178
     0
270
     2
271
     4
272
     4
273
     2
274
     2
340
F
275
     0
280
     0
281
     0
282
     0
283
     1
284
     0
285
     0
286
     0
287
     3
288
     0
  0
DIMSTYLE
105
35
102
{ACAD_REACTORS
330
7E9
330
963
330
9E1
330
9EE
330
A23
330
A55
330
A87
330
CDC
330
D2A
330
D37
330
EC2
330
F6D
330
1188
330
12C3
330
12FF
330
13B9
330
13E7
330
13F3
330
13FF
330
140B
330
1417
330
14BD
330
14F7
330
1605
330
1612
330
161E
102
}
100
AcDbSymbolTableRecord
100
AcDbDimStyleTableRecord
  2
STANDARD_WS
 70
     0
  3

  4

  5

  6

  7

 40
3.367003
 41
2.5
 42
0.625
 43
3.75
 44
1.25
 45
0.0
 46
0.0
 47
0.0
 48
0.0
140
2.5
141
2.5
142
0.0
143
0.0394
144
1.0
145
0.0
146
1.0
147
0.625
 71
     0
 72
     0
 73
     0
 74
     0
 75
     0
 76
     0
 77
     1
 78
     8
170
     0
171
     4
172
     1
173
     0
174
     0
175
     0
176
     0
177
     0
178
     0
270
     2
271
     4
272
     4
273
     8
274
     4
340
F
275
     0
280
     0
281
     0
282
     0
283
     1
284
     0
285
     0
286
     0
287
     3
288
     0
  0
ENDTAB
  0
TABLE
  2
BLOCK_RECORD
  5
1
100
AcDbSymbolTable
 70
    48
  0
BLOCK_RECORD
  5
18
100
AcDbSymbolTableRecord
100
AcDbBlockTableRecord
  2
*MODEL_SPACE
  0
BLOCK_RECORD
  5
15
100
AcDbSymbolTableRecord
100
AcDbBlockTableRecord
  2
*PAPER_SPACE
  0
BLOCK_RECORD
  5
114
100
AcDbSymbolTableRecord
100
AcDbBlockTableRecord
  2
A$C731C1FEF
  0
BLOCK_RECORD
  5
17A
100
AcDbSymbolTableRecord
100
AcDbBlockTableRecord
  2
A$C3D4A0DE5
  0
BLOCK_RECORD
  5
1AD
100
AcDbSymbolTableRecord
100
AcDbBlockTableRecord
  2
A$C061D45EC
  0
BLOCK_RECORD
  5
7DD
100
AcDbSymbolTableRecord
100
AcDbBlockTableRecord
  2
*D3
  0
BLOCK_RECORD
  5
957
100
AcDbSymbolTableRecord
100
AcDbBlockTableRecord
  2
*D4
  0
BLOCK_RECORD
  5
984
100
AcDbSymbolTableRecord
100
AcDbBlockTableRecord
  2
A$C4F2B35B1
  0
BLOCK_RECORD
  5
9CE
100
AcDbSymbolTableRecord
100
AcDbBlockTableRecord
  2
A$C560405F2
  0
BLOCK_RECORD
  5
9D5
100
AcDbSymbolTableRecord
100
AcDbBlockTableRecord
  2
*D7
  0
BLOCK_RECORD
  5
9E2
100
AcDbSymbolTableRecord
100
AcDbBlockTableRecord
  2
*D8
  0
BLOCK_RECORD
  5
A17
100
AcDbSymbolTableRecord
100
AcDbBlockTableRecord
  2
*D9
  0
BLOCK_RECORD
  5
A49
100
AcDbSymbolTableRecord
100
AcDbBlockTableRecord
  2
*D10
  0
BLOCK_RECORD
  5
A7B
100
AcDbSymbolTableRecord
100
AcDbBlockTableRecord
  2
*D11
  0
BLOCK_RECORD
  5
CD0
100
AcDbSymbolTableRecord
100
AcDbBlockTableRecord
  2
*D12
  0
BLOCK_RECORD
  5
D1E
100
AcDbSymbolTableRecord
100
AcDbBlockTableRecord
  2
*D13
  0
BLOCK_RECORD
  5
D2B
100
AcDbSymbolTableRecord
100
AcDbBlockTableRecord
  2
*D14
  0
BLOCK_RECORD
  5
EB6
100
AcDbSymbolTableRecord
100
AcDbBlockTableRecord
  2
*D15
  0
BLOCK_RECORD
  5
F60
100
AcDbSymbolTableRecord
100
AcDbBlockTableRecord
  2
*D16
  0
BLOCK_RECORD
  5
1189
100
AcDbSymbolTableRecord
100
AcDbBlockTableRecord
  2
*D17
  0
BLOCK_RECORD
  5
12C5
100
AcDbSymbolTableRecord
100
AcDbBlockTableRecord
  2
*D18
  0
BLOCK_RECORD
  5
12F3
100
AcDbSymbolTableRecord
100
AcDbBlockTableRecord
  2
*D19
  0
BLOCK_RECORD
  5
1325
100
AcDbSymbolTableRecord
100
AcDbBlockTableRecord
  2
A$C57FC20A3
  0
BLOCK_RECORD
  5
1349
100
AcDbSymbolTableRecord
100
AcDbBlockTableRecord
  2
A$C790B2C29
  0
BLOCK_RECORD
  5
136F
100
AcDbSymbolTableRecord
100
AcDbBlockTableRecord
  2
A$C5BA30E5C
  0
BLOCK_RECORD
  5
1376
100
AcDbSymbolTableRecord
100
AcDbBlockTableRecord
  2
A$C237E7A62
  0
BLOCK_RECORD
  5
137D
100
AcDbSymbolTableRecord
100
AcDbBlockTableRecord
  2
A$C4DB77D8D
  0
BLOCK_RECORD
  5
1386
100
AcDbSymbolTableRecord
100
AcDbBlockTableRecord
  2
A$C323C3B8A
  0
BLOCK_RECORD
  5
13AD
100
AcDbSymbolTableRecord
100
AcDbBlockTableRecord
  2
*D26
  0
BLOCK_RECORD
  5
13DB
100
AcDbSymbolTableRecord
100
AcDbBlockTableRecord
  2
*D27
  0
BLOCK_RECORD
  5
13E8
100
AcDbSymbolTableRecord
100
AcDbBlockTableRecord
  2
*D28
  0
BLOCK_RECORD
  5
13F4
100
AcDbSymbolTableRecord
100
AcDbBlockTableRecord
  2
*D29
  0
BLOCK_RECORD
  5
1400
100
AcDbSymbolTableRecord
100
AcDbBlockTableRecord
  2
*D30
  0
BLOCK_RECORD
  5
140C
100
AcDbSymbolTableRecord
100
AcDbBlockTableRecord
  2
*D31
  0
BLOCK_RECORD
  5
14B1
100
AcDbSymbolTableRecord
100
AcDbBlockTableRecord
  2
*D32
  0
BLOCK_RECORD
  5
14EB
100
AcDbSymbolTableRecord
100
AcDbBlockTableRecord
  2
*D33
  0
BLOCK_RECORD
  5
1504
100
AcDbSymbolTableRecord
100
AcDbBlockTableRecord
  2
A$C69A01657
  0
BLOCK_RECORD
  5
1520
100
AcDbSymbolTableRecord
100
AcDbBlockTableRecord
  2
A$C78CB6814
  0
BLOCK_RECORD
  5
1556
100
AcDbSymbolTableRecord
100
AcDbBlockTableRecord
  2
*D36
  0
BLOCK_RECORD
  5
1562
100
AcDbSymbolTableRecord
100
AcDbBlockTableRecord
  2
*D37
  0
BLOCK_RECORD
  5
156E
100
AcDbSymbolTableRecord
100
AcDbBlockTableRecord
  2
*D38
  0
BLOCK_RECORD
  5
1579
100
AcDbSymbolTableRecord
100
AcDbBlockTableRecord
  2
*D39
  0
BLOCK_RECORD
  5
1585
100
AcDbSymbolTableRecord
100
AcDbBlockTableRecord
  2
*D40
  0
BLOCK_RECORD
  5
1591
100
AcDbSymbolTableRecord
100
AcDbBlockTableRecord
  2
*D41
  0
BLOCK_RECORD
  5
159D
100
AcDbSymbolTableRecord
100
AcDbBlockTableRecord
  2
*D42
  0
BLOCK_RECORD
  5
15A9
100
AcDbSymbolTableRecord
100
AcDbBlockTableRecord
  2
*D43
  0
BLOCK_RECORD
  5
15B6
100
AcDbSymbolTableRecord
100
AcDbBlockTableRecord
  2
A$C32054945
  0
BLOCK_RECORD
  5
15F9
100
AcDbSymbolTableRecord
100
AcDbBlockTableRecord
  2
*D45
  0
BLOCK_RECORD
  5
1606
100
AcDbSymbolTableRecord
100
AcDbBlockTableRecord
  2
*D46
  0
BLOCK_RECORD
  5
1613
100
AcDbSymbolTableRecord
100
AcDbBlockTableRecord
  2
*D47
  0
ENDTAB
  0
ENDSEC
  0
SECTION
  2
BLOCKS
  0
BLOCK
  5
19
100
AcDbEntity
  8
0
100
AcDbBlockBegin
  2
*MODEL_SPACE
 70
     0
 10
0.0
 20
0.0
 30
0.0
  3
*MODEL_SPACE
  1

  0
ENDBLK
  5
1A
100
AcDbEntity
  8
0
100
AcDbBlockEnd
  0
BLOCK
  5
16
100
AcDbEntity
 67
     1
  8
0
100
AcDbBlockBegin
  2
*PAPER_SPACE
 70
     0
 10
0.0
 20
0.0
 30
0.0
  3
*PAPER_SPACE
  1

  0
ENDBLK
  5
17
100
AcDbEntity
 67
     1
  8
0
100
AcDbBlockEnd
  0
BLOCK
  5
132
100
AcDbEntity
  8
0
100
AcDbBlockBegin
  2
A$C731C1FEF
 70
     0
 10
0.0
 20
0.0
 30
0.0
  3
A$C731C1FEF
  1

  0
LINE
  5
115
100
AcDbEntity
  8
0
100
AcDbLine
 10
0.0
 20
66.0
 30
0.0
 11
52.5
 21
66.0
 31
0.0
  0
LINE
  5
116
100
AcDbEntity
  8
0
100
AcDbLine
 10
0.0
 20
62.0
 30
0.0
 11
52.5
 21
62.0
 31
0.0
  0
LINE
  5
117
100
AcDbEntity
  8
0
100
AcDbLine
 10
0.0
 20
66.0
 30
0.0
 11
0.0
 21
62.0
 31
0.0
  0
LINE
  5
118
100
AcDbEntity
  8
0
100
AcDbLine
 10
90.0
 20
48.0
 30
0.0
 11
90.0
 21
0.0
 31
0.0
  0
LINE
  5
119
100
AcDbEntity
  8
0
100
AcDbLine
 10
115.5
 20
48.0
 30
0.0
 11
115.5
 21
0.0
 31
0.0
  0
LINE
  5
11A
100
AcDbEntity
  8
0
100
AcDbLine
 10
64.5
 20
48.0
 30
0.0
 11
64.5
 21
0.0
 31
0.0
  0
LINE
  5
11B
100
AcDbEntity
  8
0
100
AcDbLine
 10
52.5
 20
48.0
 30
0.0
 11
52.5
 21
0.0
 31
0.0
  0
LINE
  5
11C
100
AcDbEntity
  8
0
100
AcDbLine
 10
127.5
 20
48.0
 30
0.0
 11
127.5
 21
0.0
 31
0.0
  0
LINE
  5
11D
100
AcDbEntity
  8
0
100
AcDbLine
 10
64.5
 20
2.0
 30
0.0
 11
90.0
 21
0.0
 31
0.0
  0
LINE
  5
11E
100
AcDbEntity
  8
0
100
AcDbLine
 10
52.5
 20
0.0
 30
0.0
 11
64.5
 21
0.0
 31
0.0
  0
LINE
  5
11F
100
AcDbEntity
  8
0
100
AcDbLine
 10
52.5
 20
12.0
 30
0.0
 11
64.5
 21
12.0
 31
0.0
  0
LINE
  5
120
100
AcDbEntity
  8
0
100
AcDbLine
 10
85.0
 20
0.392157
 30
0.0
 11
85.0
 21
0.0
 31
0.0
  0
LINE
  5
121
100
AcDbEntity
  8
0
100
AcDbLine
 10
90.0
 20
0.0
 30
0.0
 11
115.5
 21
2.0
 31
0.0
  0
LINE
  5
122
100
AcDbEntity
  8
0
100
AcDbLine
 10
95.0
 20
0.392157
 30
0.0
 11
95.0
 21
0.0
 31
0.0
  0
LINE
  5
123
100
AcDbEntity
  8
0
100
AcDbLine
 10
115.5
 20
0.0
 30
0.0
 11
127.5
 21
0.0
 31
0.0
  0
LINE
  5
124
100
AcDbEntity
  8
0
100
AcDbLine
 10
115.5
 20
12.0
 30
0.0
 11
127.5
 21
12.0
 31
0.0
  0
LINE
  5
125
100
AcDbEntity
  8
0
100
AcDbLine
 10
95.0
 20
62.0
 30
0.0
 11
95.0
 21
47.607843
 31
0.0
  0
LINE
  5
126
100
AcDbEntity
  8
0
100
AcDbLine
 10
85.0
 20
62.0
 30
0.0
 11
85.0
 21
47.607843
 31
0.0
  0
LINE
  5
127
100
AcDbEntity
  8
0
100
AcDbLine
 10
64.5
 20
46.0
 30
0.0
 11
90.0
 21
48.0
 31
0.0
  0
LINE
  5
128
100
AcDbEntity
  8
0
100
AcDbLine
 10
52.5
 20
36.0
 30
0.0
 11
64.5
 21
36.0
 31
0.0
  0
LINE
  5
129
100
AcDbEntity
  8
0
100
AcDbLine
 10
52.5
 20
48.0
 30
0.0
 11
64.5
 21
48.0
 31
0.0
  0
LINE
  5
12A
100
AcDbEntity
  8
0
100
AcDbLine
 10
90.0
 20
48.0
 30
0.0
 11
115.5
 21
46.0
 31
0.0
  0
LINE
  5
12B
100
AcDbEntity
  8
0
100
AcDbLine
 10
115.5
 20
36.0
 30
0.0
 11
127.5
 21
36.0
 31
0.0
  0
LINE
  5
12C
100
AcDbEntity
  8
0
100
AcDbLine
 10
115.5
 20
48.0
 30
0.0
 11
127.5
 21
48.0
 31
0.0
  0
LINE
  5
12D
100
AcDbEntity
  8
0
100
AcDbLine
 10
64.5
 20
62.0
 30
0.0
 11
95.0
 21
62.0
 31
0.0
  0
LINE
  5
12E
100
AcDbEntity
  8
0
100
AcDbLine
 10
64.5
 20
58.0
 30
0.0
 11
95.0
 21
58.0
 31
0.0
  0
LINE
  5
12F
100
AcDbEntity
  8
0
100
AcDbLine
 10
52.5
 20
66.0
 30
0.0
 11
64.5
 21
62.0
 31
0.0
  0
LINE
  5
130
100
AcDbEntity
  8
0
100
AcDbLine
 10
52.5
 20
62.0
 30
0.0
 11
64.5
 21
58.0
 31
0.0
  0
LINE
  5
131
100
AcDbEntity
  8
0
100
AcDbLine
 10
90.0
 20
62.0
 30
0.0
 11
90.0
 21
58.0
 31
0.0
  0
ENDBLK
  5
133
100
AcDbEntity
  8
0
100
AcDbBlockEnd
  0
BLOCK
  5
198
100
AcDbEntity
  8
0
100
AcDbBlockBegin
  2
A$C3D4A0DE5
 70
     0
 10
0.0
 20
0.0
 30
0.0
  3
A$C3D4A0DE5
  1

  0
LINE
  5
17B
100
AcDbEntity
  8
0
  6
HIDDEN2
100
AcDbLine
 10
0.0
 20
66.0
 30
0.0
 11
52.5
 21
66.0
 31
0.0
  0
LINE
  5
17C
100
AcDbEntity
  8
0
  6
HIDDEN2
100
AcDbLine
 10
0.0
 20
62.0
 30
0.0
 11
52.5
 21
62.0
 31
0.0
  0
LINE
  5
17D
100
AcDbEntity
  8
0
  6
HIDDEN2
100
AcDbLine
 10
0.0
 20
66.0
 30
0.0
 11
0.0
 21
62.0
 31
0.0
  0
LINE
  5
17E
100
AcDbEntity
  8
0
  6
HIDDEN2
100
AcDbLine
 10
90.0
 20
48.0
 30
0.0
 11
90.0
 21
0.0
 31
0.0
  0
LINE
  5
17F
100
AcDbEntity
  8
0
  6
HIDDEN2
100
AcDbLine
 10
115.5
 20
48.0
 30
0.0
 11
115.5
 21
0.0
 31
0.0
  0
LINE
  5
180
100
AcDbEntity
  8
0
  6
HIDDEN2
100
AcDbLine
 10
64.5
 20
48.0
 30
0.0
 11
64.5
 21
0.0
 31
0.0
  0
LINE
  5
181
100
AcDbEntity
  8
0
  6
HIDDEN2
100
AcDbLine
 10
52.5
 20
48.0
 30
0.0
 11
52.5
 21
0.0
 31
0.0
  0
LINE
  5
182
100
AcDbEntity
  8
0
  6
HIDDEN2
100
AcDbLine
 10
127.5
 20
48.0
 30
0.0
 11
127.5
 21
0.0
 31
0.0
  0
LINE
  5
183
100
AcDbEntity
  8
0
  6
HIDDEN2
100
AcDbLine
 10
64.5
 20
2.0
 30
0.0
 11
90.0
 21
0.0
 31
0.0
  0
LINE
  5
184
100
AcDbEntity
  8
0
  6
HIDDEN2
100
AcDbLine
 10
52.5
 20
0.0
 30
0.0
 11
64.5
 21
0.0
 31
0.0
  0
LINE
  5
185
100
AcDbEntity
  8
0
  6
HIDDEN2
100
AcDbLine
 10
52.5
 20
12.0
 30
0.0
 11
64.5
 21
12.0
 31
0.0
  0
LINE
  5
186
100
AcDbEntity
  8
0
  6
HIDDEN2
100
AcDbLine
 10
85.0
 20
0.392157
 30
0.0
 11
85.0
 21
0.0
 31
0.0
  0
LINE
  5
187
100
AcDbEntity
  8
0
  6
HIDDEN2
100
AcDbLine
 10
90.0
 20
0.0
 30
0.0
 11
115.5
 21
2.0
 31
0.0
  0
LINE
  5
188
100
AcDbEntity
  8
0
  6
HIDDEN2
100
AcDbLine
 10
95.0
 20
0.392157
 30
0.0
 11
95.0
 21
0.0
 31
0.0
  0
LINE
  5
189
100
AcDbEntity
  8
0
  6
HIDDEN2
100
AcDbLine
 10
115.5
 20
0.0
 30
0.0
 11
127.5
 21
0.0
 31
0.0
  0
LINE
  5
18A
100
AcDbEntity
  8
0
  6
HIDDEN2
100
AcDbLine
 10
115.5
 20
12.0
 30
0.0
 11
127.5
 21
12.0
 31
0.0
  0
LINE
  5
18B
100
AcDbEntity
  8
0
  6
HIDDEN2
100
AcDbLine
 10
95.0
 20
62.0
 30
0.0
 11
95.0
 21
47.607843
 31
0.0
  0
LINE
  5
18C
100
AcDbEntity
  8
0
  6
HIDDEN2
100
AcDbLine
 10
85.0
 20
62.0
 30
0.0
 11
85.0
 21
47.607843
 31
0.0
  0
LINE
  5
18D
100
AcDbEntity
  8
0
  6
HIDDEN2
100
AcDbLine
 10
64.5
 20
46.0
 30
0.0
 11
90.0
 21
48.0
 31
0.0
  0
LINE
  5
18E
100
AcDbEntity
  8
0
  6
HIDDEN2
100
AcDbLine
 10
52.5
 20
36.0
 30
0.0
 11
64.5
 21
36.0
 31
0.0
  0
LINE
  5
18F
100
AcDbEntity
  8
0
  6
HIDDEN2
100
AcDbLine
 10
52.5
 20
48.0
 30
0.0
 11
64.5
 21
48.0
 31
0.0
  0
LINE
  5
190
100
AcDbEntity
  8
0
  6
HIDDEN2
100
AcDbLine
 10
90.0
 20
48.0
 30
0.0
 11
115.5
 21
46.0
 31
0.0
  0
LINE
  5
191
100
AcDbEntity
  8
0
  6
HIDDEN2
100
AcDbLine
 10
115.5
 20
36.0
 30
0.0
 11
127.5
 21
36.0
 31
0.0
  0
LINE
  5
192
100
AcDbEntity
  8
0
  6
HIDDEN2
100
AcDbLine
 10
115.5
 20
48.0
 30
0.0
 11
127.5
 21
48.0
 31
0.0
  0
LINE
  5
193
100
AcDbEntity
  8
0
  6
HIDDEN2
100
AcDbLine
 10
64.5
 20
62.0
 30
0.0
 11
95.0
 21
62.0
 31
0.0
  0
LINE
  5
194
100
AcDbEntity
  8
0
  6
HIDDEN2
100
AcDbLine
 10
64.5
 20
58.0
 30
0.0
 11
95.0
 21
58.0
 31
0.0
  0
LINE
  5
195
100
AcDbEntity
  8
0
  6
HIDDEN2
100
AcDbLine
 10
52.5
 20
66.0
 30
0.0
 11
64.5
 21
62.0
 31
0.0
  0
LINE
  5
196
100
AcDbEntity
  8
0
  6
HIDDEN2
100
AcDbLine
 10
52.5
 20
62.0
 30
0.0
 11
64.5
 21
58.0
 31
0.0
  0
LINE
  5
197
100
AcDbEntity
  8
0
  6
HIDDEN2
100
AcDbLine
 10
90.0
 20
62.0
 30
0.0
 11
90.0
 21
58.0
 31
0.0
  0
ENDBLK
  5
199
100
AcDbEntity
  8
0
100
AcDbBlockEnd
  0
BLOCK
  5
1B8
100
AcDbEntity
  8
0
100
AcDbBlockBegin
  2
A$C061D45EC
 70
     0
 10
0.0
 20
0.0
 30
0.0
  3
A$C061D45EC
  1

  0
LINE
  5
1AE
100
AcDbEntity
  8
0
100
AcDbLine
 10
0.0
 20
18.392157
 30
0.0
 11
52.5
 21
18.392157
 31
0.0
  0
LINE
  5
1AF
100
AcDbEntity
  8
0
100
AcDbLine
 10
0.0
 20
14.392157
 30
0.0
 11
52.5
 21
14.392157
 31
0.0
  0
LINE
  5
1B0
100
AcDbEntity
  8
0
100
AcDbLine
 10
0.0
 20
18.392157
 30
0.0
 11
0.0
 21
14.392157
 31
0.0
  0
LINE
  5
1B1
100
AcDbEntity
  8
0
100
AcDbLine
 10
64.5
 20
14.392157
 30
0.0
 11
95.0
 21
14.392157
 31
0.0
  0
LINE
  5
1B2
100
AcDbEntity
  8
0
100
AcDbLine
 10
64.5
 20
10.392157
 30
0.0
 11
95.0
 21
10.392157
 31
0.0
  0
LINE
  5
1B3
100
AcDbEntity
  8
0
100
AcDbLine
 10
52.5
 20
18.392157
 30
0.0
 11
64.5
 21
14.392157
 31
0.0
  0
LINE
  5
1B4
100
AcDbEntity
  8
0
100
AcDbLine
 10
52.5
 20
14.392157
 30
0.0
 11
64.5
 21
10.392157
 31
0.0
  0
LINE
  5
1B5
100
AcDbEntity
  8
0
100
AcDbLine
 10
90.0
 20
14.392157
 30
0.0
 11
90.0
 21
10.392157
 31
0.0
  0
LINE
  5
1B6
100
AcDbEntity
  8
0
100
AcDbLine
 10
85.0
 20
14.392157
 30
0.0
 11
85.0
 21
0.0
 31
0.0
  0
LINE
  5
1B7
100
AcDbEntity
  8
0
100
AcDbLine
 10
95.0
 20
14.392157
 30
0.0
 11
95.0
 21
0.0
 31
0.0
  0
ENDBLK
  5
1B9
100
AcDbEntity
  8
0
100
AcDbBlockEnd
  0
BLOCK
  5
C1E
100
AcDbEntity
  8
0
100
AcDbBlockBegin
  2
*D3
 70
     1
 10
0.0
 20
0.0
 30
0.0
  3
*D3
  1

  0
LINE
  5
C1F
100
AcDbEntity
  8
0
  6
BYBLOCK
 62
     0
100
AcDbLine
 10
704.256135
 20
942.87257
 30
0.0
 11
886.033754
 21
942.87257
 31
0.0
  0
LINE
  5
C20
100
AcDbEntity
  8
0
  6
BYBLOCK
 62
     0
100
AcDbLine
 10
805.860945
 20
42.87257
 30
0.0
 11
886.033754
 21
42.87257
 31
0.0
  0
LINE
  5
C21
100
AcDbEntity
  8
0
  6
BYBLOCK
 62
     0
100
AcDbLine
 10
881.824999
 20
934.455062
 30
0.0
 11
881.824999
 21
51.290079
 31
0.0
  0
SOLID
  5
C22
100
AcDbEntity
  8
0
  6
BYBLOCK
 62
     0
100
AcDbTrace
 10
880.422081
 20
934.455062
 30
0.0
 11
883.227918
 21
934.455062
 31
0.0
 12
881.824999
 22
942.87257
 32
0.0
 13
881.824999
 23
942.87257
 33
0.0
  0
SOLID
  5
C23
100
AcDbEntity
  8
0
  6
BYBLOCK
 62
     0
100
AcDbTrace
 10
880.422081
 20
51.290079
 30
0.0
 11
883.227918
 21
51.290079
 31
0.0
 12
881.824999
 22
42.87257
 32
0.0
 13
881.824999
 23
42.87257
 33
0.0
  0
MTEXT
  5
C24
100
AcDbEntity
  8
0
  6
BYBLOCK
 62
     0
100
AcDbMText
 10
869.720622
 20
492.87257
 30
0.0
 40
20.0
 41
0.0
 71
     5
 72
     1
  1
\A1;900
 11
0.0
 21
1.0
 31
0.0
  0
POINT
  5
C25
100
AcDbEntity
  8
DEFPOINTS
  6
BYBLOCK
 62
     0
100
AcDbPoint
 10
702.151758
 20
942.87257
 30
0.0
  0
POINT
  5
C26
100
AcDbEntity
  8
DEFPOINTS
  6
BYBLOCK
 62
     0
100
AcDbPoint
 10
803.756568
 20
42.87257
 30
0.0
  0
POINT
  5
C27
100
AcDbEntity
  8
DEFPOINTS
  6
BYBLOCK
 62
     0
100
AcDbPoint
 10
881.824999
 20
42.87257
 30
0.0
  0
ENDBLK
  5
C28
100
AcDbEntity
  8
0
100
AcDbBlockEnd
  0
BLOCK
  5
102C
100
AcDbEntity
  8
0
100
AcDbBlockBegin
  2
*D4
 70
     1
 10
0.0
 20
0.0
 30
0.0
  3
*D4
  1

  0
LINE
  5
102D
100
AcDbEntity
  8
0
  6
BYBLOCK
 62
     0
100
AcDbLine
 10
650.543279
 20
1842.293319
 30
0.0
 11
768.34744
 21
1842.293319
 31
0.0
  0
LINE
  5
102E
100
AcDbEntity
  8
0
  6
BYBLOCK
 62
     0
100
AcDbLine
 10
659.33458
 20
1252.293319
 30
0.0
 11
768.34744
 21
1252.293319
 31
0.0
  0
LINE
  5
102F
100
AcDbEntity
  8
0
  6
BYBLOCK
 62
     0
100
AcDbLine
 10
764.138686
 20
1833.875811
 30
0.0
 11
764.138686
 21
1260.710827
 31
0.0
  0
SOLID
  5
1030
100
AcDbEntity
  8
0
  6
BYBLOCK
 62
     0
100
AcDbTrace
 10
762.735768
 20
1833.875811
 30
0.0
 11
765.541604
 21
1833.875811
 31
0.0
 12
764.138686
 22
1842.293319
 32
0.0
 13
764.138686
 23
1842.293319
 33
0.0
  0
SOLID
  5
1031
100
AcDbEntity
  8
0
  6
BYBLOCK
 62
     0
100
AcDbTrace
 10
762.735768
 20
1260.710827
 30
0.0
 11
765.541604
 21
1260.710827
 31
0.0
 12
764.138686
 22
1252.293319
 32
0.0
 13
764.138686
 23
1252.293319
 33
0.0
  0
MTEXT
  5
1032
100
AcDbEntity
  8
0
  6
BYBLOCK
 62
     0
100
AcDbMText
 10
752.034309
 20
1630.961067
 30
0.0
 40
20.0
 41
0.0
 71
     5
 72
     1
  1
\A1;590
 11
0.0
 21
1.0
 31
0.0
  0
POINT
  5
1033
100
AcDbEntity
  8
DEFPOINTS
  6
BYBLOCK
 62
     0
100
AcDbPoint
 10
648.438902
 20
1842.293319
 30
0.0
  0
POINT
  5
1034
100
AcDbEntity
  8
DEFPOINTS
  6
BYBLOCK
 62
     0
100
AcDbPoint
 10
657.230202
 20
1252.293319
 30
0.0
  0
POINT
  5
1035
100
AcDbEntity
  8
DEFPOINTS
  6
BYBLOCK
 62
     0
100
AcDbPoint
 10
764.138686
 20
1252.293319
 30
0.0
  0
ENDBLK
  5
1036
100
AcDbEntity
  8
0
100
AcDbBlockEnd
  0
BLOCK
  5
986
100
AcDbEntity
  8
0
100
AcDbBlockBegin
  2
A$C4F2B35B1
 70
     0
 10
0.0
 20
0.0
 30
0.0
  3
A$C4F2B35B1
  1

  0
LWPOLYLINE
  5
985
100
AcDbEntity
  8
0
100
AcDbPolyline
 90
        4
 70
     1
 43
0.0
 10
0.0
 20
115.721462
 10
3.40623
 20
115.721462
 10
3.40623
 20
0.0
 10
0.0
 20
0.0
  0
ENDBLK
  5
987
100
AcDbEntity
  8
0
100
AcDbBlockEnd
  0
BLOCK
  5
9D2
100
AcDbEntity
  8
0
100
AcDbBlockBegin
  2
A$C560405F2
 70
     0
 10
0.0
 20
0.0
 30
0.0
  3
A$C560405F2
  1

  0
INSERT
  5
9CF
100
AcDbEntity
  8
0
100
AcDbBlockReference
  2
A$C061D45EC
 10
0.000005
 20
49.747753
 30
0.0
  0
CIRCLE
  5
9D0
100
AcDbEntity
  8
0
100
AcDbCircle
 10
89.810756
 20
24.999998
 30
0.0
 40
25.0
  0
CIRCLE
  5
9D1
100
AcDbEntity
  8
0
100
AcDbCircle
 10
89.810756
 20
24.999998
 30
0.0
 40
21.0
  0
ENDBLK
  5
9D3
100
AcDbEntity
  8
0
100
AcDbBlockEnd
  0
BLOCK
  5
E09
100
AcDbEntity
  8
0
100
AcDbBlockBegin
  2
*D7
 70
     1
 10
0.0
 20
0.0
 30
0.0
  3
*D7
  1

  0
LINE
  5
E0A
100
AcDbEntity
  8
0
  6
BYBLOCK
 62
     0
100
AcDbLine
 10
705.242356
 20
842.87257
 30
0.0
 11
805.603634
 21
842.87257
 31
0.0
  0
LINE
  5
E0B
100
AcDbEntity
  8
0
  6
BYBLOCK
 62
     0
100
AcDbLine
 10
702.784666
 20
42.87257
 30
0.0
 11
805.603634
 21
42.87257
 31
0.0
  0
LINE
  5
E0C
100
AcDbEntity
  8
0
  6
BYBLOCK
 62
     0
100
AcDbLine
 10
801.39488
 20
834.455062
 30
0.0
 11
801.39488
 21
51.290079
 31
0.0
  0
SOLID
  5
E0D
100
AcDbEntity
  8
0
  6
BYBLOCK
 62
     0
100
AcDbTrace
 10
799.991962
 20
834.455062
 30
0.0
 11
802.797798
 21
834.455062
 31
0.0
 12
801.39488
 22
842.87257
 32
0.0
 13
801.39488
 23
842.87257
 33
0.0
  0
SOLID
  5
E0E
100
AcDbEntity
  8
0
  6
BYBLOCK
 62
     0
100
AcDbTrace
 10
799.991962
 20
51.290079
 30
0.0
 11
802.797798
 21
51.290079
 31
0.0
 12
801.39488
 22
42.87257
 32
0.0
 13
801.39488
 23
42.87257
 33
0.0
  0
MTEXT
  5
E0F
100
AcDbEntity
  8
0
  6
BYBLOCK
 62
     0
100
AcDbMText
 10
789.290503
 20
590.285126
 30
0.0
 40
20.0
 41
0.0
 71
     5
 72
     1
  1
\A1;800
 11
0.0
 21
1.0
 31
0.0
  0
POINT
  5
E10
100
AcDbEntity
  8
DEFPOINTS
  6
BYBLOCK
 62
     0
100
AcDbPoint
 10
703.137979
 20
842.87257
 30
0.0
  0
POINT
  5
E11
100
AcDbEntity
  8
DEFPOINTS
  6
BYBLOCK
 62
     0
100
AcDbPoint
 10
700.680289
 20
42.87257
 30
0.0
  0
POINT
  5
E12
100
AcDbEntity
  8
DEFPOINTS
  6
BYBLOCK
 62
     0
100
AcDbPoint
 10
801.39488
 20
42.87257
 30
0.0
  0
ENDBLK
  5
E13
100
AcDbEntity
  8
0
100
AcDbBlockEnd
  0
BLOCK
  5
BFD
100
AcDbEntity
  8
0
100
AcDbBlockBegin
  2
*D8
 70
     1
 10
0.0
 20
0.0
 30
0.0
  3
*D8
  1

  0
LINE
  5
BFE
100
AcDbEntity
  8
0
  6
BYBLOCK
 62
     0
100
AcDbLine
 10
705.242356
 20
842.87257
 30
0.0
 11
805.001705
 21
842.87257
 31
0.0
  0
LINE
  5
BFF
100
AcDbEntity
  8
0
  6
BYBLOCK
 62
     0
100
AcDbLine
 10
707.653351
 20
942.87257
 30
0.0
 11
805.001705
 21
942.87257
 31
0.0
  0
LINE
  5
C00
100
AcDbEntity
  8
0
  6
BYBLOCK
 62
     0
100
AcDbLine
 10
800.792951
 20
851.290079
 30
0.0
 11
800.792951
 21
934.455062
 31
0.0
  0
SOLID
  5
C01
100
AcDbEntity
  8
0
  6
BYBLOCK
 62
     0
100
AcDbTrace
 10
799.390032
 20
851.290079
 30
0.0
 11
802.195869
 21
851.290079
 31
0.0
 12
800.792951
 22
842.87257
 32
0.0
 13
800.792951
 23
842.87257
 33
0.0
  0
SOLID
  5
C02
100
AcDbEntity
  8
0
  6
BYBLOCK
 62
     0
100
AcDbTrace
 10
799.390032
 20
934.455062
 30
0.0
 11
802.195869
 21
934.455062
 31
0.0
 12
800.792951
 22
942.87257
 32
0.0
 13
800.792951
 23
942.87257
 33
0.0
  0
MTEXT
  5
C03
100
AcDbEntity
  8
0
  6
BYBLOCK
 62
     0
100
AcDbMText
 10
788.688573
 20
892.87257
 30
0.0
 40
20.0
 41
0.0
 71
     5
 72
     1
  1
\A1;100
 11
0.0
 21
1.0
 31
0.0
  0
POINT
  5
C04
100
AcDbEntity
  8
DEFPOINTS
  6
BYBLOCK
 62
     0
100
AcDbPoint
 10
703.137979
 20
842.87257
 30
0.0
  0
POINT
  5
C05
100
AcDbEntity
  8
DEFPOINTS
  6
BYBLOCK
 62
     0
100
AcDbPoint
 10
705.548974
 20
942.87257
 30
0.0
  0
POINT
  5
C06
100
AcDbEntity
  8
DEFPOINTS
  6
BYBLOCK
 62
     0
100
AcDbPoint
 10
800.792951
 20
942.87257
 30
0.0
  0
ENDBLK
  5
C07
100
AcDbEntity
  8
0
100
AcDbBlockEnd
  0
BLOCK
  5
B79
100
AcDbEntity
  8
0
100
AcDbBlockBegin
  2
*D9
 70
     1
 10
0.0
 20
0.0
 30
0.0
  3
*D9
  1

  0
LINE
  5
B7A
100
AcDbEntity
  8
0
  6
BYBLOCK
 62
     0
100
AcDbLine
 10
700.543279
 20
1842.293319
 30
0.0
 11
764.662582
 21
1842.293319
 31
0.0
  0
LINE
  5
B7B
100
AcDbEntity
  8
0
  6
BYBLOCK
 62
     0
100
AcDbLine
 10
697.996874
 20
1752.293319
 30
0.0
 11
764.662582
 21
1752.293319
 31
0.0
  0
LINE
  5
B7C
100
AcDbEntity
  8
0
  6
BYBLOCK
 62
     0
100
AcDbLine
 10
760.453828
 20
1833.875811
 30
0.0
 11
760.453828
 21
1760.710827
 31
0.0
  0
SOLID
  5
B7D
100
AcDbEntity
  8
0
  6
BYBLOCK
 62
     0
100
AcDbTrace
 10
759.05091
 20
1833.875811
 30
0.0
 11
761.856746
 21
1833.875811
 31
0.0
 12
760.453828
 22
1842.293319
 32
0.0
 13
760.453828
 23
1842.293319
 33
0.0
  0
SOLID
  5
B7E
100
AcDbEntity
  8
0
  6
BYBLOCK
 62
     0
100
AcDbTrace
 10
759.05091
 20
1760.710827
 30
0.0
 11
761.856746
 21
1760.710827
 31
0.0
 12
760.453828
 22
1752.293319
 32
0.0
 13
760.453828
 23
1752.293319
 33
0.0
  0
MTEXT
  5
B7F
100
AcDbEntity
  8
0
  6
BYBLOCK
 62
     0
100
AcDbMText
 10
748.349451
 20
1797.293319
 30
0.0
 40
20.0
 41
0.0
 71
     5
 72
     1
  1
\A1;90
 11
0.0
 21
1.0
 31
0.0
  0
POINT
  5
B80
100
AcDbEntity
  8
DEFPOINTS
  6
BYBLOCK
 62
     0
100
AcDbPoint
 10
698.438902
 20
1842.293319
 30
0.0
  0
POINT
  5
B81
100
AcDbEntity
  8
DEFPOINTS
  6
BYBLOCK
 62
     0
100
AcDbPoint
 10
695.892497
 20
1752.293319
 30
0.0
  0
POINT
  5
B82
100
AcDbEntity
  8
DEFPOINTS
  6
BYBLOCK
 62
     0
100
AcDbPoint
 10
760.453828
 20
1752.293319
 30
0.0
  0
ENDBLK
  5
B83
100
AcDbEntity
  8
0
100
AcDbBlockEnd
  0
BLOCK
  5
1021
100
AcDbEntity
  8
0
100
AcDbBlockBegin
  2
*D10
 70
     1
 10
0.0
 20
0.0
 30
0.0
  3
*D10
  1

  0
LINE
  5
1022
100
AcDbEntity
  8
0
  6
BYBLOCK
 62
     0
100
AcDbLine
 10
647.996874
 20
1752.293319
 30
0.0
 11
713.441909
 21
1752.293319
 31
0.0
  0
LINE
  5
1023
100
AcDbEntity
  8
0
  6
BYBLOCK
 62
     0
100
AcDbLine
 10
659.33458
 20
1252.293319
 30
0.0
 11
713.441909
 21
1252.293319
 31
0.0
  0
LINE
  5
1024
100
AcDbEntity
  8
0
  6
BYBLOCK
 62
     0
100
AcDbLine
 10
709.233155
 20
1743.875811
 30
0.0
 11
709.233155
 21
1260.710827
 31
0.0
  0
SOLID
  5
1025
100
AcDbEntity
  8
0
  6
BYBLOCK
 62
     0
100
AcDbTrace
 10
707.830237
 20
1743.875811
 30
0.0
 11
710.636073
 21
1743.875811
 31
0.0
 12
709.233155
 22
1752.293319
 32
0.0
 13
709.233155
 23
1752.293319
 33
0.0
  0
SOLID
  5
1026
100
AcDbEntity
  8
0
  6
BYBLOCK
 62
     0
100
AcDbTrace
 10
707.830237
 20
1260.710827
 30
0.0
 11
710.636073
 21
1260.710827
 31
0.0
 12
709.233155
 22
1252.293319
 32
0.0
 13
709.233155
 23
1252.293319
 33
0.0
  0
MTEXT
  5
1027
100
AcDbEntity
  8
0
  6
BYBLOCK
 62
     0
100
AcDbMText
 10
697.128778
 20
1581.773796
 30
0.0
 40
20.0
 41
0.0
 71
     5
 72
     1
  1
\A1;500
 11
0.0
 21
1.0
 31
0.0
  0
POINT
  5
1028
100
AcDbEntity
  8
DEFPOINTS
  6
BYBLOCK
 62
     0
100
AcDbPoint
 10
645.892497
 20
1752.293319
 30
0.0
  0
POINT
  5
1029
100
AcDbEntity
  8
DEFPOINTS
  6
BYBLOCK
 62
     0
100
AcDbPoint
 10
657.230202
 20
1252.293319
 30
0.0
  0
POINT
  5
102A
100
AcDbEntity
  8
DEFPOINTS
  6
BYBLOCK
 62
     0
100
AcDbPoint
 10
709.233155
 20
1252.293319
 30
0.0
  0
ENDBLK
  5
102B
100
AcDbEntity
  8
0
100
AcDbBlockEnd
  0
BLOCK
  5
B6E
100
AcDbEntity
  8
0
100
AcDbBlockBegin
  2
*D11
 70
     1
 10
0.0
 20
0.0
 30
0.0
  3
*D11
  1

  0
LINE
  5
B6F
100
AcDbEntity
  8
0
  6
BYBLOCK
 62
     0
100
AcDbLine
 10
563.037643
 20
1825.293319
 30
0.0
 11
602.011622
 21
1825.293319
 31
0.0
  0
LINE
  5
B70
100
AcDbEntity
  8
0
  6
BYBLOCK
 62
     0
100
AcDbLine
 10
565.584048
 20
1768.293319
 30
0.0
 11
602.011622
 21
1768.293319
 31
0.0
  0
LINE
  5
B71
100
AcDbEntity
  8
0
  6
BYBLOCK
 62
     0
100
AcDbLine
 10
597.802868
 20
1816.875811
 30
0.0
 11
597.802868
 21
1776.710827
 31
0.0
  0
SOLID
  5
B72
100
AcDbEntity
  8
0
  6
BYBLOCK
 62
     0
100
AcDbTrace
 10
596.39995
 20
1816.875811
 30
0.0
 11
599.205786
 21
1816.875811
 31
0.0
 12
597.802868
 22
1825.293319
 32
0.0
 13
597.802868
 23
1825.293319
 33
0.0
  0
SOLID
  5
B73
100
AcDbEntity
  8
0
  6
BYBLOCK
 62
     0
100
AcDbTrace
 10
596.39995
 20
1776.710827
 30
0.0
 11
599.205786
 21
1776.710827
 31
0.0
 12
597.802868
 22
1768.293319
 32
0.0
 13
597.802868
 23
1768.293319
 33
0.0
  0
MTEXT
  5
B74
100
AcDbEntity
  8
0
  6
BYBLOCK
 62
     0
100
AcDbMText
 10
585.698491
 20
1796.793319
 30
0.0
 40
20.0
 41
0.0
 71
     5
 72
     1
  1
\A1;57
 11
0.0
 21
1.0
 31
0.0
  0
POINT
  5
B75
100
AcDbEntity
  8
DEFPOINTS
  6
BYBLOCK
 62
     0
100
AcDbPoint
 10
560.933266
 20
1825.293319
 30
0.0
  0
POINT
  5
B76
100
AcDbEntity
  8
DEFPOINTS
  6
BYBLOCK
 62
     0
100
AcDbPoint
 10
563.479671
 20
1768.293319
 30
0.0
  0
POINT
  5
B77
100
AcDbEntity
  8
DEFPOINTS
  6
BYBLOCK
 62
     0
100
AcDbPoint
 10
597.802868
 20
1768.293319
 30
0.0
  0
ENDBLK
  5
B78
100
AcDbEntity
  8
0
100
AcDbBlockEnd
  0
BLOCK
  5
DDE
100
AcDbEntity
  8
0
100
AcDbBlockBegin
  2
*D12
 70
     1
 10
0.0
 20
0.0
 30
0.0
  3
*D12
  1

  0
LINE
  5
DDF
100
AcDbEntity
  8
0
  6
BYBLOCK
 62
     0
100
AcDbLine
 10
1531.389366
 20
859.993351
 30
0.0
 11
1531.389366
 21
1064.034225
 31
0.0
  0
LINE
  5
DE0
100
AcDbEntity
  8
0
  6
BYBLOCK
 62
     0
100
AcDbLine
 10
2121.389366
 20
961.342865
 30
0.0
 11
2121.389366
 21
1064.034225
 31
0.0
  0
LINE
  5
DE1
100
AcDbEntity
  8
0
  6
BYBLOCK
 62
     0
100
AcDbLine
 10
1539.806875
 20
1059.825471
 30
0.0
 11
2112.971858
 21
1059.825471
 31
0.0
  0
SOLID
  5
DE2
100
AcDbEntity
  8
0
  6
BYBLOCK
 62
     0
100
AcDbTrace
 10
1539.806875
 20
1061.228389
 30
0.0
 11
1539.806875
 21
1058.422553
 31
0.0
 12
1531.389366
 22
1059.825471
 32
0.0
 13
1531.389366
 23
1059.825471
 33
0.0
  0
SOLID
  5
DE3
100
AcDbEntity
  8
0
  6
BYBLOCK
 62
     0
100
AcDbTrace
 10
2112.971858
 20
1061.228389
 30
0.0
 11
2112.971858
 21
1058.422553
 31
0.0
 12
2121.389366
 22
1059.825471
 32
0.0
 13
2121.389366
 23
1059.825471
 33
0.0
  0
MTEXT
  5
DE4
100
AcDbEntity
  8
0
  6
BYBLOCK
 62
     0
100
AcDbMText
 10
1826.389366
 20
1071.929848
 30
0.0
 40
20.0
 41
0.0
 71
     5
 72
     1
  1
\A1;590
  0
POINT
  5
DE5
100
AcDbEntity
  8
DEFPOINTS
  6
BYBLOCK
 62
     0
100
AcDbPoint
 10
1531.389366
 20
857.888974
 30
0.0
  0
POINT
  5
DE6
100
AcDbEntity
  8
DEFPOINTS
  6
BYBLOCK
 62
     0
100
AcDbPoint
 10
2121.389366
 20
959.238487
 30
0.0
  0
POINT
  5
DE7
100
AcDbEntity
  8
DEFPOINTS
  6
BYBLOCK
 62
     0
100
AcDbPoint
 10
2121.389366
 20
1059.825471
 30
0.0
  0
ENDBLK
  5
DE8
100
AcDbEntity
  8
0
100
AcDbBlockEnd
  0
BLOCK
  5
D38
100
AcDbEntity
  8
0
100
AcDbBlockBegin
  2
*D13
 70
     1
 10
0.0
 20
0.0
 30
0.0
  3
*D13
  1

  0
LINE
  5
D39
100
AcDbEntity
  8
0
  6
BYBLOCK
 62
     0
100
AcDbLine
 10
1866.784989
 20
722.87257
 30
0.0
 11
1863.513122
 21
722.87257
 31
0.0
  0
LINE
  5
D3A
100
AcDbEntity
  8
0
  6
BYBLOCK
 62
     0
100
AcDbLine
 10
1866.784989
 20
842.87257
 30
0.0
 11
1863.513122
 21
842.87257
 31
0.0
  0
LINE
  5
D3B
100
AcDbEntity
  8
0
  6
BYBLOCK
 62
     0
100
AcDbLine
 10
1867.721877
 20
731.290079
 30
0.0
 11
1867.721877
 21
834.455062
 31
0.0
  0
SOLID
  5
D3C
100
AcDbEntity
  8
0
  6
BYBLOCK
 62
     0
100
AcDbTrace
 10
1866.318959
 20
731.290079
 30
0.0
 11
1869.124795
 21
731.290079
 31
0.0
 12
1867.721877
 22
722.87257
 32
0.0
 13
1867.721877
 23
722.87257
 33
0.0
  0
SOLID
  5
D3D
100
AcDbEntity
  8
0
  6
BYBLOCK
 62
     0
100
AcDbTrace
 10
1866.318959
 20
834.455062
 30
0.0
 11
1869.124795
 21
834.455062
 31
0.0
 12
1867.721877
 22
842.87257
 32
0.0
 13
1867.721877
 23
842.87257
 33
0.0
  0
MTEXT
  5
D3E
100
AcDbEntity
  8
0
  6
BYBLOCK
 62
     0
100
AcDbMText
 10
1855.6175
 20
782.87257
 30
0.0
 40
20.0
 41
0.0
 71
     5
 72
     1
  1
\A1;120
 11
0.0
 21
1.0
 31
0.0
  0
POINT
  5
D3F
100
AcDbEntity
  8
DEFPOINTS
  6
BYBLOCK
 62
     0
100
AcDbPoint
 10
1868.889366
 20
722.87257
 30
0.0
  0
POINT
  5
D40
100
AcDbEntity
  8
DEFPOINTS
  6
BYBLOCK
 62
     0
100
AcDbPoint
 10
1868.889366
 20
842.87257
 30
0.0
  0
POINT
  5
D41
100
AcDbEntity
  8
DEFPOINTS
  6
BYBLOCK
 62
     0
100
AcDbPoint
 10
1867.721877
 20
842.87257
 30
0.0
  0
ENDBLK
  5
D42
100
AcDbEntity
  8
0
100
AcDbBlockEnd
  0
BLOCK
  5
DE9
100
AcDbEntity
  8
0
100
AcDbBlockBegin
  2
*D14
 70
     1
 10
0.0
 20
0.0
 30
0.0
  3
*D14
  1

  0
LINE
  5
DEA
100
AcDbEntity
  8
0
  6
BYBLOCK
 62
     0
100
AcDbLine
 10
2121.389366
 20
961.342865
 30
0.0
 11
2121.389366
 21
1029.272568
 31
0.0
  0
LINE
  5
DEB
100
AcDbEntity
  8
0
  6
BYBLOCK
 62
     0
100
AcDbLine
 10
2031.389366
 20
964.807356
 30
0.0
 11
2031.389366
 21
1029.272568
 31
0.0
  0
LINE
  5
DEC
100
AcDbEntity
  8
0
  6
BYBLOCK
 62
     0
100
AcDbLine
 10
2112.971858
 20
1025.063814
 30
0.0
 11
2039.806875
 21
1025.063814
 31
0.0
  0
SOLID
  5
DED
100
AcDbEntity
  8
0
  6
BYBLOCK
 62
     0
100
AcDbTrace
 10
2112.971858
 20
1026.466732
 30
0.0
 11
2112.971858
 21
1023.660896
 31
0.0
 12
2121.389366
 22
1025.063814
 32
0.0
 13
2121.389366
 23
1025.063814
 33
0.0
  0
SOLID
  5
DEE
100
AcDbEntity
  8
0
  6
BYBLOCK
 62
     0
100
AcDbTrace
 10
2039.806875
 20
1026.466732
 30
0.0
 11
2039.806875
 21
1023.660896
 31
0.0
 12
2031.389366
 22
1025.063814
 32
0.0
 13
2031.389366
 23
1025.063814
 33
0.0
  0
MTEXT
  5
DEF
100
AcDbEntity
  8
0
  6
BYBLOCK
 62
     0
100
AcDbMText
 10
2076.389366
 20
1037.168191
 30
0.0
 40
20.0
 41
0.0
 71
     5
 72
     1
  1
\A1;90
  0
POINT
  5
DF0
100
AcDbEntity
  8
DEFPOINTS
  6
BYBLOCK
 62
     0
100
AcDbPoint
 10
2121.389366
 20
959.238487
 30
0.0
  0
POINT
  5
DF1
100
AcDbEntity
  8
DEFPOINTS
  6
BYBLOCK
 62
     0
100
AcDbPoint
 10
2031.389366
 20
962.702979
 30
0.0
  0
POINT
  5
DF2
100
AcDbEntity
  8
DEFPOINTS
  6
BYBLOCK
 62
     0
100
AcDbPoint
 10
2031.389366
 20
1025.063814
 30
0.0
  0
ENDBLK
  5
DF3
100
AcDbEntity
  8
0
100
AcDbBlockEnd
  0
BLOCK
  5
EF0
100
AcDbEntity
  8
0
100
AcDbBlockBegin
  2
*D15
 70
     1
 10
0.0
 20
0.0
 30
0.0
  3
*D15
  1

  0
LINE
  5
EF1
100
AcDbEntity
  8
0
  6
BYBLOCK
 62
     0
100
AcDbLine
 10
1737.789002
 20
732.87257
 30
0.0
 11
1743.569964
 21
732.87257
 31
0.0
  0
LINE
  5
EF2
100
AcDbEntity
  8
0
  6
BYBLOCK
 62
     0
100
AcDbLine
 10
1738.493743
 20
817.87257
 30
0.0
 11
1743.569964
 21
817.87257
 31
0.0
  0
LINE
  5
EF3
100
AcDbEntity
  8
0
  6
BYBLOCK
 62
     0
100
AcDbLine
 10
1739.36121
 20
741.290079
 30
0.0
 11
1739.36121
 21
809.455062
 31
0.0
  0
SOLID
  5
EF4
100
AcDbEntity
  8
0
  6
BYBLOCK
 62
     0
100
AcDbTrace
 10
1737.958292
 20
741.290079
 30
0.0
 11
1740.764128
 21
741.290079
 31
0.0
 12
1739.36121
 22
732.87257
 32
0.0
 13
1739.36121
 23
732.87257
 33
0.0
  0
SOLID
  5
EF5
100
AcDbEntity
  8
0
  6
BYBLOCK
 62
     0
100
AcDbTrace
 10
1737.958292
 20
809.455062
 30
0.0
 11
1740.764128
 21
809.455062
 31
0.0
 12
1739.36121
 22
817.87257
 32
0.0
 13
1739.36121
 23
817.87257
 33
0.0
  0
MTEXT
  5
EF6
100
AcDbEntity
  8
0
  6
BYBLOCK
 62
     0
100
AcDbMText
 10
1727.256833
 20
775.37257
 30
0.0
 40
20.0
 41
0.0
 71
     5
 72
     1
  1
\A1;85
 11
0.0
 21
1.0
 31
0.0
  0
POINT
  5
EF7
100
AcDbEntity
  8
DEFPOINTS
  6
BYBLOCK
 62
     0
100
AcDbPoint
 10
1735.684624
 20
732.87257
 30
0.0
  0
POINT
  5
EF8
100
AcDbEntity
  8
DEFPOINTS
  6
BYBLOCK
 62
     0
100
AcDbPoint
 10
1736.389366
 20
817.87257
 30
0.0
  0
POINT
  5
EF9
100
AcDbEntity
  8
DEFPOINTS
  6
BYBLOCK
 62
     0
100
AcDbPoint
 10
1739.36121
 20
817.87257
 30
0.0
  0
ENDBLK
  5
EFA
100
AcDbEntity
  8
0
100
AcDbBlockEnd
  0
BLOCK
  5
FC5
100
AcDbEntity
  8
0
100
AcDbBlockBegin
  2
*D16
 70
     1
 10
0.0
 20
0.0
 30
0.0
  3
*D16
  1

  0
LINE
  5
FC6
100
AcDbEntity
  8
0
  6
BYBLOCK
 62
     0
100
AcDbLine
 10
2031.389366
 20
860.283788
 30
0.0
 11
2031.389366
 21
938.743428
 31
0.0
  0
LINE
  5
FC7
100
AcDbEntity
  8
0
  6
BYBLOCK
 62
     0
100
AcDbLine
 10
2001.389366
 20
851.044015
 30
0.0
 11
2001.389366
 21
938.743428
 31
0.0
  0
LINE
  5
FC8
100
AcDbEntity
  8
0
  6
BYBLOCK
 62
     0
100
AcDbLine
 10
2022.971858
 20
934.534674
 30
0.0
 11
2009.806875
 21
934.534674
 31
0.0
  0
LINE
  5
FC9
100
AcDbEntity
  8
0
  6
BYBLOCK
 62
     0
100
AcDbLine
 10
2001.389366
 20
934.534674
 30
0.0
 11
1958.763103
 21
934.534674
 31
0.0
  0
SOLID
  5
FCA
100
AcDbEntity
  8
0
  6
BYBLOCK
 62
     0
100
AcDbTrace
 10
2022.971858
 20
935.937592
 30
0.0
 11
2022.971858
 21
933.131756
 31
0.0
 12
2031.389366
 22
934.534674
 32
0.0
 13
2031.389366
 23
934.534674
 33
0.0
  0
SOLID
  5
FCB
100
AcDbEntity
  8
0
  6
BYBLOCK
 62
     0
100
AcDbTrace
 10
2009.806875
 20
935.937592
 30
0.0
 11
2009.806875
 21
933.131756
 31
0.0
 12
2001.389366
 22
934.534674
 32
0.0
 13
2001.389366
 23
934.534674
 33
0.0
  0
MTEXT
  5
FCC
100
AcDbEntity
  8
0
  6
BYBLOCK
 62
     0
100
AcDbMText
 10
1975.867481
 20
946.639051
 30
0.0
 40
20.0
 41
0.0
 71
     5
 72
     1
  1
\A1;30
  0
POINT
  5
FCD
100
AcDbEntity
  8
DEFPOINTS
  6
BYBLOCK
 62
     0
100
AcDbPoint
 10
2031.389366
 20
858.17941
 30
0.0
  0
POINT
  5
FCE
100
AcDbEntity
  8
DEFPOINTS
  6
BYBLOCK
 62
     0
100
AcDbPoint
 10
2001.389366
 20
848.939638
 30
0.0
  0
POINT
  5
FCF
100
AcDbEntity
  8
DEFPOINTS
  6
BYBLOCK
 62
     0
100
AcDbPoint
 10
2001.389366
 20
934.534674
 30
0.0
  0
ENDBLK
  5
FD0
100
AcDbEntity
  8
0
100
AcDbBlockEnd
  0
BLOCK
  5
11A1
100
AcDbEntity
  8
0
100
AcDbBlockBegin
  2
*D17
 70
     1
 10
0.0
 20
0.0
 30
0.0
  3
*D17
  1

  0
LINE
  5
11A2
100
AcDbEntity
  8
0
  6
BYBLOCK
 62
     0
100
AcDbLine
 10
943.037643
 20
1825.293319
 30
0.0
 11
982.011622
 21
1825.293319
 31
0.0
  0
LINE
  5
11A3
100
AcDbEntity
  8
0
  6
BYBLOCK
 62
     0
100
AcDbLine
 10
945.584048
 20
1768.293319
 30
0.0
 11
982.011622
 21
1768.293319
 31
0.0
  0
LINE
  5
11A4
100
AcDbEntity
  8
0
  6
BYBLOCK
 62
     0
100
AcDbLine
 10
977.802868
 20
1816.875811
 30
0.0
 11
977.802868
 21
1776.710827
 31
0.0
  0
SOLID
  5
11A5
100
AcDbEntity
  8
0
  6
BYBLOCK
 62
     0
100
AcDbTrace
 10
976.39995
 20
1816.875811
 30
0.0
 11
979.205786
 21
1816.875811
 31
0.0
 12
977.802868
 22
1825.293319
 32
0.0
 13
977.802868
 23
1825.293319
 33
0.0
  0
SOLID
  5
11A6
100
AcDbEntity
  8
0
  6
BYBLOCK
 62
     0
100
AcDbTrace
 10
976.39995
 20
1776.710827
 30
0.0
 11
979.205786
 21
1776.710827
 31
0.0
 12
977.802868
 22
1768.293319
 32
0.0
 13
977.802868
 23
1768.293319
 33
0.0
  0
MTEXT
  5
11A7
100
AcDbEntity
  8
0
  6
BYBLOCK
 62
     0
100
AcDbMText
 10
965.698491
 20
1796.793319
 30
0.0
 40
20.0
 41
0.0
 71
     5
 72
     1
  1
\A1;57
 11
0.0
 21
1.0
 31
0.0
  0
POINT
  5
11A8
100
AcDbEntity
  8
DEFPOINTS
  6
BYBLOCK
 62
     0
100
AcDbPoint
 10
940.933266
 20
1825.293319
 30
0.0
  0
POINT
  5
11A9
100
AcDbEntity
  8
DEFPOINTS
  6
BYBLOCK
 62
     0
100
AcDbPoint
 10
943.479671
 20
1768.293319
 30
0.0
  0
POINT
  5
11AA
100
AcDbEntity
  8
DEFPOINTS
  6
BYBLOCK
 62
     0
100
AcDbPoint
 10
977.802868
 20
1768.293319
 30
0.0
  0
ENDBLK
  5
11AB
100
AcDbEntity
  8
0
100
AcDbBlockEnd
  0
BLOCK
  5
12DD
100
AcDbEntity
  8
0
100
AcDbBlockBegin
  2
*D18
 70
     1
 10
0.0
 20
0.0
 30
0.0
  3
*D18
  1

  0
LINE
  5
12DE
100
AcDbEntity
  8
0
  6
BYBLOCK
 62
     0
100
AcDbLine
 10
904.446653
 20
1002.87257
 30
0.0
 11
940.327503
 21
1002.87257
 31
0.0
  0
LINE
  5
12DF
100
AcDbEntity
  8
0
  6
BYBLOCK
 62
     0
100
AcDbLine
 10
892.997023
 20
942.87257
 30
0.0
 11
940.327503
 21
942.87257
 31
0.0
  0
LINE
  5
12E0
100
AcDbEntity
  8
0
  6
BYBLOCK
 62
     0
100
AcDbLine
 10
936.118748
 20
994.455062
 30
0.0
 11
936.118748
 21
951.290079
 31
0.0
  0
SOLID
  5
12E1
100
AcDbEntity
  8
0
  6
BYBLOCK
 62
     0
100
AcDbTrace
 10
934.71583
 20
994.455062
 30
0.0
 11
937.521666
 21
994.455062
 31
0.0
 12
936.118748
 22
1002.87257
 32
0.0
 13
936.118748
 23
1002.87257
 33
0.0
  0
SOLID
  5
12E2
100
AcDbEntity
  8
0
  6
BYBLOCK
 62
     0
100
AcDbTrace
 10
934.71583
 20
951.290079
 30
0.0
 11
937.521666
 21
951.290079
 31
0.0
 12
936.118748
 22
942.87257
 32
0.0
 13
936.118748
 23
942.87257
 33
0.0
  0
MTEXT
  5
12E3
100
AcDbEntity
  8
0
  6
BYBLOCK
 62
     0
100
AcDbMText
 10
924.014371
 20
972.87257
 30
0.0
 40
20.0
 41
0.0
 71
     5
 72
     1
  1
\A1;60
 11
0.0
 21
1.0
 31
0.0
  0
POINT
  5
12E4
100
AcDbEntity
  8
DEFPOINTS
  6
BYBLOCK
 62
     0
100
AcDbPoint
 10
902.342276
 20
1002.87257
 30
0.0
  0
POINT
  5
12E5
100
AcDbEntity
  8
DEFPOINTS
  6
BYBLOCK
 62
     0
100
AcDbPoint
 10
890.892646
 20
942.87257
 30
0.0
  0
POINT
  5
12E6
100
AcDbEntity
  8
DEFPOINTS
  6
BYBLOCK
 62
     0
100
AcDbPoint
 10
936.118748
 20
942.87257
 30
0.0
  0
ENDBLK
  5
12E7
100
AcDbEntity
  8
0
100
AcDbBlockEnd
  0
BLOCK
  5
1316
100
AcDbEntity
  8
0
100
AcDbBlockBegin
  2
*D19
 70
     1
 10
0.0
 20
0.0
 30
0.0
  3
*D19
  1

  0
LINE
  5
1317
100
AcDbEntity
  8
0
  6
BYBLOCK
 62
     0
100
AcDbLine
 10
255.892646
 20
963.127674
 30
0.0
 11
255.892646
 21
1069.951851
 31
0.0
  0
LINE
  5
1318
100
AcDbEntity
  8
0
  6
BYBLOCK
 62
     0
100
AcDbLine
 10
975.892646
 20
967.887661
 30
0.0
 11
975.892646
 21
1069.951851
 31
0.0
  0
LINE
  5
1319
100
AcDbEntity
  8
0
  6
BYBLOCK
 62
     0
100
AcDbLine
 10
264.310154
 20
1065.743097
 30
0.0
 11
967.475137
 21
1065.743097
 31
0.0
  0
SOLID
  5
131A
100
AcDbEntity
  8
0
  6
BYBLOCK
 62
     0
100
AcDbTrace
 10
264.310154
 20
1067.146015
 30
0.0
 11
264.310154
 21
1064.340179
 31
0.0
 12
255.892646
 22
1065.743097
 32
0.0
 13
255.892646
 23
1065.743097
 33
0.0
  0
SOLID
  5
131B
100
AcDbEntity
  8
0
  6
BYBLOCK
 62
     0
100
AcDbTrace
 10
967.475137
 20
1067.146015
 30
0.0
 11
967.475137
 21
1064.340179
 31
0.0
 12
975.892646
 22
1065.743097
 32
0.0
 13
975.892646
 23
1065.743097
 33
0.0
  0
MTEXT
  5
131C
100
AcDbEntity
  8
0
  6
BYBLOCK
 62
     0
100
AcDbMText
 10
615.892646
 20
1077.847474
 30
0.0
 40
20.0
 41
0.0
 71
     5
 72
     1
  1
\A1;720
  0
POINT
  5
131D
100
AcDbEntity
  8
DEFPOINTS
  6
BYBLOCK
 62
     0
100
AcDbPoint
 10
255.892646
 20
961.023297
 30
0.0
  0
POINT
  5
131E
100
AcDbEntity
  8
DEFPOINTS
  6
BYBLOCK
 62
     0
100
AcDbPoint
 10
975.892646
 20
965.783284
 30
0.0
  0
POINT
  5
131F
100
AcDbEntity
  8
DEFPOINTS
  6
BYBLOCK
 62
     0
100
AcDbPoint
 10
975.892646
 20
1065.743097
 30
0.0
  0
ENDBLK
  5
1320
100
AcDbEntity
  8
0
100
AcDbBlockEnd
  0
BLOCK
  5
1346
100
AcDbEntity
  8
0
100
AcDbBlockBegin
  2
A$C57FC20A3
 70
     0
 10
0.0
 20
0.0
 30
0.0
  3
A$C57FC20A3
  1

  0
ARC
  5
1326
100
AcDbEntity
  8
0
100
AcDbCircle
 10
31.863103
 20
31.863087
 30
0.0
 40
31.863106
100
AcDbArc
 50
180.0
 51
269.935552
  0
LINE
  5
1327
100
AcDbEntity
  8
0
100
AcDbLine
 10
-0.000003
 20
31.863087
 30
0.0
 11
25.999997
 21
31.863087
 31
0.0
  0
LINE
  5
1328
100
AcDbEntity
  8
0
100
AcDbLine
 10
3.55624
 20
32.625717
 30
0.0
 11
3.55624
 21
31.863087
 31
0.0
  0
LINE
  5
1329
100
AcDbEntity
  8
0
100
AcDbLine
 10
32.452829
 20
22.464614
 30
0.0
 11
39.722377
 21
4.778631
 31
0.0
  0
LINE
  5
132A
100
AcDbEntity
  8
0
100
AcDbLine
 10
34.981366
 20
23.412077
 30
0.0
 11
47.308
 21
8.252666
 31
0.0
  0
ARC
  5
132B
100
AcDbEntity
  8
0
100
AcDbCircle
 10
31.361491
 20
31.863087
 30
0.0
 40
8.863106
100
AcDbArc
 50
269.768309
 51
0.0
  0
LINE
  5
132C
100
AcDbEntity
  8
0
100
AcDbLine
 10
31.827263
 20
26.000091
 30
0.0
 11
31.827263
 21
0.000001
 31
0.0
  0
ARC
  5
132D
100
AcDbEntity
  8
0
100
AcDbCircle
 10
31.863103
 20
31.863087
 30
0.0
 40
5.863106
100
AcDbArc
 50
180.0
 51
269.649757
  0
LINE
  5
132E
100
AcDbEntity
  8
0
100
AcDbLine
 10
60.440324
 20
32.443049
 30
0.0
 11
60.440324
 21
112.317827
 31
0.0
  0
LINE
  5
132F
100
AcDbEntity
  8
0
100
AcDbLine
 10
40.440324
 20
32.443049
 30
0.0
 11
40.440324
 21
112.317827
 31
0.0
  0
LINE
  5
1330
100
AcDbEntity
  8
0
100
AcDbLine
 10
37.509903
 20
25.307008
 30
0.0
 11
53.945423
 21
14.253268
 31
0.0
  0
LINE
  5
1331
100
AcDbEntity
  8
0
100
AcDbLine
 10
39.722377
 20
28.149395
 30
0.0
 11
58.37036
 21
22.780435
 31
0.0
  0
LINE
  5
1332
100
AcDbEntity
  8
0
100
AcDbLine
 10
40.224597
 20
37.863087
 30
0.0
 11
60.224597
 21
37.863087
 31
0.0
  0
LINE
  5
1333
100
AcDbEntity
  8
0
100
AcDbLine
 10
40.224597
 20
31.863087
 30
0.0
 11
60.224597
 21
31.863087
 31
0.0
  0
ARC
  5
1334
100
AcDbEntity
  8
0
100
AcDbCircle
 10
70.022822
 20
112.604167
 30
0.0
 40
6.403993
100
AcDbArc
 50
90.0
 51
180.0
  0
ARC
  5
1335
100
AcDbEntity
  8
0
100
AcDbCircle
 10
70.022822
 20
112.604167
 30
0.0
 40
32.403993
100
AcDbArc
 50
90.0
 51
180.0
  0
LINE
  5
1336
100
AcDbEntity
  8
0
100
AcDbLine
 10
40.224597
 20
79.863087
 30
0.0
 11
60.224597
 21
79.863087
 31
0.0
  0
LINE
  5
1337
100
AcDbEntity
  8
0
100
AcDbLine
 10
40.224597
 20
73.863087
 30
0.0
 11
60.224597
 21
73.863087
 31
0.0
  0
LINE
  5
1338
100
AcDbEntity
  8
0
100
AcDbLine
 10
40.224597
 20
67.863087
 30
0.0
 11
60.224597
 21
67.863087
 31
0.0
  0
LINE
  5
1339
100
AcDbEntity
  8
0
100
AcDbLine
 10
40.224597
 20
61.863087
 30
0.0
 11
60.224597
 21
61.863087
 31
0.0
  0
LINE
  5
133A
100
AcDbEntity
  8
0
100
AcDbLine
 10
40.224597
 20
55.863087
 30
0.0
 11
60.224597
 21
55.863087
 31
0.0
  0
LINE
  5
133B
100
AcDbEntity
  8
0
100
AcDbLine
 10
40.224597
 20
49.863087
 30
0.0
 11
60.224597
 21
49.863087
 31
0.0
  0
LINE
  5
133C
100
AcDbEntity
  8
0
100
AcDbLine
 10
40.224597
 20
43.863087
 30
0.0
 11
60.224597
 21
43.863087
 31
0.0
  0
LINE
  5
133D
100
AcDbEntity
  8
0
100
AcDbLine
 10
40.224597
 20
109.863087
 30
0.0
 11
60.224597
 21
109.863087
 31
0.0
  0
LINE
  5
133E
100
AcDbEntity
  8
0
100
AcDbLine
 10
40.224597
 20
103.863087
 30
0.0
 11
60.224597
 21
103.863087
 31
0.0
  0
LINE
  5
133F
100
AcDbEntity
  8
0
100
AcDbLine
 10
40.224597
 20
97.863087
 30
0.0
 11
60.224597
 21
97.863087
 31
0.0
  0
LINE
  5
1340
100
AcDbEntity
  8
0
100
AcDbLine
 10
40.224597
 20
91.863087
 30
0.0
 11
60.224597
 21
91.863087
 31
0.0
  0
LINE
  5
1341
100
AcDbEntity
  8
0
100
AcDbLine
 10
40.224597
 20
85.863087
 30
0.0
 11
60.224597
 21
85.863087
 31
0.0
  0
LINE
  5
1342
100
AcDbEntity
  8
0
100
AcDbLine
 10
37.618829
 20
112.604167
 30
0.0
 11
63.618829
 21
112.604167
 31
0.0
  0
LINE
  5
1343
100
AcDbEntity
  8
0
100
AcDbLine
 10
70.022822
 20
119.008161
 30
0.0
 11
70.022822
 21
145.008161
 31
0.0
  0
LINE
  5
1344
100
AcDbEntity
  8
0
100
AcDbLine
 10
70.786531
 20
123.142002
 30
0.0
 11
90.566888
 21
123.142002
 31
0.0
  0
LINE
  5
1345
100
AcDbEntity
  8
0
100
AcDbLine
 10
70.786531
 20
143.142002
 30
0.0
 11
76.061292
 21
143.142002
 31
0.0
  0
ENDBLK
  5
1347
100
AcDbEntity
  8
0
100
AcDbBlockEnd
  0
BLOCK
  5
136B
100
AcDbEntity
  8
0
100
AcDbBlockBegin
  2
A$C790B2C29
 70
     0
 10
0.0
 20
0.0
 30
0.0
  3
A$C790B2C29
  1

  0
LINE
  5
134A
100
AcDbEntity
  8
0
100
AcDbLine
 10
60.440324
 20
32.443049
 30
0.0
 11
60.440324
 21
112.317827
 31
0.0
  0
LINE
  5
134B
100
AcDbEntity
  8
0
100
AcDbLine
 10
40.440324
 20
32.443049
 30
0.0
 11
40.440324
 21
112.317827
 31
0.0
  0
LINE
  5
134C
100
AcDbEntity
  8
0
100
AcDbLine
 10
32.452829
 20
22.464614
 30
0.0
 11
39.722377
 21
4.778631
 31
0.0
  0
LINE
  5
134D
100
AcDbEntity
  8
0
100
AcDbLine
 10
34.981366
 20
23.412077
 30
0.0
 11
47.308
 21
8.252666
 31
0.0
  0
ARC
  5
134E
100
AcDbEntity
  8
0
100
AcDbCircle
 10
31.361491
 20
31.863087
 30
0.0
 40
28.863106
100
AcDbArc
 50
269.928854
 51
0.0
  0
ARC
  5
134F
100
AcDbEntity
  8
0
100
AcDbCircle
 10
31.361491
 20
31.863087
 30
0.0
 40
8.863106
100
AcDbArc
 50
269.768309
 51
0.0
  0
LINE
  5
1350
100
AcDbEntity
  8
0
100
AcDbLine
 10
31.827263
 20
26.000091
 30
0.0
 11
31.827263
 21
0.000001
 31
0.0
  0
LINE
  5
1351
100
AcDbEntity
  8
0
100
AcDbLine
 10
37.509903
 20
25.307008
 30
0.0
 11
53.945423
 21
14.253268
 31
0.0
  0
LINE
  5
1352
100
AcDbEntity
  8
0
100
AcDbLine
 10
39.722377
 20
28.149395
 30
0.0
 11
58.37036
 21
22.780435
 31
0.0
  0
LINE
  5
1353
100
AcDbEntity
  8
0
100
AcDbLine
 10
40.224597
 20
37.863087
 30
0.0
 11
60.224597
 21
37.863087
 31
0.0
  0
LINE
  5
1354
100
AcDbEntity
  8
0
100
AcDbLine
 10
40.224597
 20
31.863087
 30
0.0
 11
60.224597
 21
31.863087
 31
0.0
  0
ARC
  5
1355
100
AcDbEntity
  8
0
100
AcDbCircle
 10
70.022822
 20
112.604167
 30
0.0
 40
6.403993
100
AcDbArc
 50
90.0
 51
180.0
  0
ARC
  5
1356
100
AcDbEntity
  8
0
100
AcDbCircle
 10
70.022822
 20
112.604167
 30
0.0
 40
32.403993
100
AcDbArc
 50
90.0
 51
180.0
  0
LINE
  5
1357
100
AcDbEntity
  8
0
100
AcDbLine
 10
40.224597
 20
79.863087
 30
0.0
 11
60.224597
 21
79.863087
 31
0.0
  0
LINE
  5
1358
100
AcDbEntity
  8
0
100
AcDbLine
 10
40.224597
 20
73.863087
 30
0.0
 11
60.224597
 21
73.863087
 31
0.0
  0
LINE
  5
1359
100
AcDbEntity
  8
0
100
AcDbLine
 10
40.224597
 20
67.863087
 30
0.0
 11
60.224597
 21
67.863087
 31
0.0
  0
LINE
  5
135A
100
AcDbEntity
  8
0
100
AcDbLine
 10
40.224597
 20
61.863087
 30
0.0
 11
60.224597
 21
61.863087
 31
0.0
  0
LINE
  5
135B
100
AcDbEntity
  8
0
100
AcDbLine
 10
40.224597
 20
55.863087
 30
0.0
 11
60.224597
 21
55.863087
 31
0.0
  0
LINE
  5
135C
100
AcDbEntity
  8
0
100
AcDbLine
 10
40.224597
 20
49.863087
 30
0.0
 11
60.224597
 21
49.863087
 31
0.0
  0
LINE
  5
135D
100
AcDbEntity
  8
0
100
AcDbLine
 10
40.224597
 20
43.863087
 30
0.0
 11
60.224597
 21
43.863087
 31
0.0
  0
LINE
  5
135E
100
AcDbEntity
  8
0
100
AcDbLine
 10
40.224597
 20
109.863087
 30
0.0
 11
60.224597
 21
109.863087
 31
0.0
  0
LINE
  5
135F
100
AcDbEntity
  8
0
100
AcDbLine
 10
40.224597
 20
103.863087
 30
0.0
 11
60.224597
 21
103.863087
 31
0.0
  0
LINE
  5
1360
100
AcDbEntity
  8
0
100
AcDbLine
 10
40.224597
 20
97.863087
 30
0.0
 11
60.224597
 21
97.863087
 31
0.0
  0
LINE
  5
1361
100
AcDbEntity
  8
0
100
AcDbLine
 10
40.224597
 20
91.863087
 30
0.0
 11
60.224597
 21
91.863087
 31
0.0
  0
LINE
  5
1362
100
AcDbEntity
  8
0
100
AcDbLine
 10
40.224597
 20
85.863087
 30
0.0
 11
60.224597
 21
85.863087
 31
0.0
  0
LINE
  5
1363
100
AcDbEntity
  8
0
100
AcDbLine
 10
37.618829
 20
112.604167
 30
0.0
 11
63.618829
 21
112.604167
 31
0.0
  0
LINE
  5
1364
100
AcDbEntity
  8
0
100
AcDbLine
 10
70.022822
 20
119.008161
 30
0.0
 11
70.022822
 21
145.008161
 31
0.0
  0
LINE
  5
1365
100
AcDbEntity
  8
0
100
AcDbLine
 10
70.786531
 20
123.142002
 30
0.0
 11
90.566888
 21
123.142002
 31
0.0
  0
LINE
  5
1366
100
AcDbEntity
  8
0
100
AcDbLine
 10
70.786531
 20
143.142002
 30
0.0
 11
76.061292
 21
143.142002
 31
0.0
  0
ARC
  5
1367
100
AcDbEntity
  8
0
100
AcDbCircle
 10
31.863103
 20
31.863087
 30
0.0
 40
31.863106
100
AcDbArc
 50
180.0
 51
269.935552
  0
LINE
  5
1368
100
AcDbEntity
  8
0
100
AcDbLine
 10
-0.000003
 20
31.863087
 30
0.0
 11
25.999997
 21
31.863087
 31
0.0
  0
LINE
  5
1369
100
AcDbEntity
  8
0
100
AcDbLine
 10
3.55624
 20
32.625717
 30
0.0
 11
3.55624
 21
31.863087
 31
0.0
  0
ARC
  5
136A
100
AcDbEntity
  8
0
100
AcDbCircle
 10
31.863103
 20
31.863087
 30
0.0
 40
5.863106
100
AcDbArc
 50
180.0
 51
269.649757
  0
ENDBLK
  5
136C
100
AcDbEntity
  8
0
100
AcDbBlockEnd
  0
BLOCK
  5
1374
100
AcDbEntity
  8
0
100
AcDbBlockBegin
  2
A$C5BA30E5C
 70
     0
 10
0.0
 20
0.0
 30
0.0
  3
A$C5BA30E5C
  1

  0
ARC
  5
1370
100
AcDbEntity
  8
0
100
AcDbCircle
 10
32.403988
 20
0.0
 30
0.0
 40
32.403993
100
AcDbArc
 50
90.0
 51
180.0
  0
ARC
  5
1371
100
AcDbEntity
  8
0
100
AcDbCircle
 10
32.403988
 20
0.0
 30
0.0
 40
6.403993
100
AcDbArc
 50
90.0
 51
180.0
  0
LINE
  5
1372
100
AcDbEntity
  8
0
100
AcDbLine
 10
-0.000006
 20
0.0
 30
0.0
 11
25.999994
 21
0.0
 31
0.0
  0
LINE
  5
1373
100
AcDbEntity
  8
0
100
AcDbLine
 10
32.403988
 20
6.403993
 30
0.0
 11
32.403988
 21
32.403993
 31
0.0
  0
ENDBLK
  5
1375
100
AcDbEntity
  8
0
100
AcDbBlockEnd
  0
BLOCK
  5
1378
100
AcDbEntity
  8
0
100
AcDbBlockBegin
  2
A$C237E7A62
 70
     0
 10
0.0
 20
0.0
 30
0.0
  3
A$C237E7A62
  1

  0
INSERT
  5
1377
100
AcDbEntity
  8
0
100
AcDbBlockReference
  2
A$C5BA30E5C
 10
0.000001
 20
32.403988
 30
0.0
 50
270.0
  0
ENDBLK
  5
1379
100
AcDbEntity
  8
0
100
AcDbBlockEnd
  0
BLOCK
  5
1384
100
AcDbEntity
  8
0
100
AcDbBlockBegin
  2
A$C4DB77D8D
 70
     0
 10
0.0
 20
0.0
 30
0.0
  3
A$C4DB77D8D
  1

  0
LINE
  5
137E
100
AcDbEntity
  8
0
100
AcDbLine
 10
0.000002
 20
49.4285
 30
0.0
 11
0.000002
 21
25.53571
 31
0.0
  0
ARC
  5
137F
100
AcDbEntity
  8
0
100
AcDbCircle
 10
4.720433
 20
6.195308
 30
0.0
 40
43.921086
100
AcDbArc
 50
10.393885
 51
79.606115
  0
ARC
  5
1380
100
AcDbEntity
  8
0
100
AcDbCircle
 10
-2.654815
 20
-1.386464
 30
0.0
 40
27.052754
100
AcDbArc
 50
2.937713
 51
84.368225
  0
LINE
  5
1381
100
AcDbEntity
  8
0
100
AcDbLine
 10
24.362388
 20
-0.000002
 30
0.0
 11
47.953624
 21
-0.000002
 31
0.0
  0
LINE
  5
1382
100
AcDbEntity
  8
0
100
AcDbLine
 10
47.953624
 20
13.758466
 30
0.0
 11
47.953624
 21
-0.000002
 31
0.0
  0
LINE
  5
1383
100
AcDbEntity
  8
0
100
AcDbLine
 10
0.000002
 20
49.4285
 30
0.0
 11
12.283591
 21
49.4285
 31
0.0
  0
ENDBLK
  5
1385
100
AcDbEntity
  8
0
100
AcDbBlockEnd
  0
BLOCK
  5
1388
100
AcDbEntity
  8
0
100
AcDbBlockBegin
  2
A$C323C3B8A
 70
     0
 10
0.0
 20
0.0
 30
0.0
  3
A$C323C3B8A
  1

  0
INSERT
  5
1387
100
AcDbEntity
  8
0
100
AcDbBlockReference
  2
A$C4DB77D8D
 10
47.953625
 20
49.428497
 30
0.0
 50
180.0
  0
ENDBLK
  5
1389
100
AcDbEntity
  8
0
100
AcDbBlockEnd
  0
BLOCK
  5
13D0
100
AcDbEntity
  8
0
100
AcDbBlockBegin
  2
*D26
 70
     1
 10
0.0
 20
0.0
 30
0.0
  3
*D26
  1

  0
LINE
  5
13D1
100
AcDbEntity
  8
0
  6
BYBLOCK
 62
     0
100
AcDbLine
 10
273.116697
 20
1722.293319
 30
0.0
 11
179.94858
 21
1722.293319
 31
0.0
  0
LINE
  5
13D2
100
AcDbEntity
  8
0
  6
BYBLOCK
 62
     0
100
AcDbLine
 10
273.746257
 20
1292.293319
 30
0.0
 11
179.94858
 21
1292.293319
 31
0.0
  0
LINE
  5
13D3
100
AcDbEntity
  8
0
  6
BYBLOCK
 62
     0
100
AcDbLine
 10
184.157334
 20
1713.875811
 30
0.0
 11
184.157334
 21
1300.710827
 31
0.0
  0
SOLID
  5
13D4
100
AcDbEntity
  8
0
  6
BYBLOCK
 62
     0
100
AcDbTrace
 10
182.754416
 20
1713.875811
 30
0.0
 11
185.560252
 21
1713.875811
 31
0.0
 12
184.157334
 22
1722.293319
 32
0.0
 13
184.157334
 23
1722.293319
 33
0.0
  0
SOLID
  5
13D5
100
AcDbEntity
  8
0
  6
BYBLOCK
 62
     0
100
AcDbTrace
 10
182.754416
 20
1300.710827
 30
0.0
 11
185.560252
 21
1300.710827
 31
0.0
 12
184.157334
 22
1292.293319
 32
0.0
 13
184.157334
 23
1292.293319
 33
0.0
  0
MTEXT
  5
13D6
100
AcDbEntity
  8
0
  6
BYBLOCK
 62
     0
100
AcDbMText
 10
172.052957
 20
1507.293319
 30
0.0
 40
20.0
 41
0.0
 71
     5
 72
     1
  1
\A1;430
 11
0.0
 21
1.0
 31
0.0
  0
POINT
  5
13D7
100
AcDbEntity
  8
DEFPOINTS
  6
BYBLOCK
 62
     0
100
AcDbPoint
 10
275.221074
 20
1722.293319
 30
0.0
  0
POINT
  5
13D8
100
AcDbEntity
  8
DEFPOINTS
  6
BYBLOCK
 62
     0
100
AcDbPoint
 10
275.850634
 20
1292.293319
 30
0.0
  0
POINT
  5
13D9
100
AcDbEntity
  8
DEFPOINTS
  6
BYBLOCK
 62
     0
100
AcDbPoint
 10
184.157334
 20
1292.293319
 30
0.0
  0
ENDBLK
  5
13DA
100
AcDbEntity
  8
0
100
AcDbBlockEnd
  0
BLOCK
  5
147E
100
AcDbEntity
  8
0
100
AcDbBlockBegin
  2
*D27
 70
     1
 10
0.0
 20
0.0
 30
0.0
  3
*D27
  1

  0
LINE
  5
147F
100
AcDbEntity
  8
0
  6
BYBLOCK
 62
     0
100
AcDbLine
 10
255.892646
 20
1859.222458
 30
0.0
 11
255.892646
 21
1896.045019
 31
0.0
  0
LINE
  5
1480
100
AcDbEntity
  8
0
  6
BYBLOCK
 62
     0
100
AcDbLine
 10
340.892646
 20
1856.742585
 30
0.0
 11
340.892646
 21
1896.045019
 31
0.0
  0
LINE
  5
1481
100
AcDbEntity
  8
0
  6
BYBLOCK
 62
     0
100
AcDbLine
 10
264.310154
 20
1891.836264
 30
0.0
 11
332.475137
 21
1891.836264
 31
0.0
  0
SOLID
  5
1482
100
AcDbEntity
  8
0
  6
BYBLOCK
 62
     0
100
AcDbTrace
 10
264.310154
 20
1893.239183
 30
0.0
 11
264.310154
 21
1890.433346
 31
0.0
 12
255.892646
 22
1891.836264
 32
0.0
 13
255.892646
 23
1891.836264
 33
0.0
  0
SOLID
  5
1483
100
AcDbEntity
  8
0
  6
BYBLOCK
 62
     0
100
AcDbTrace
 10
332.475137
 20
1893.239183
 30
0.0
 11
332.475137
 21
1890.433346
 31
0.0
 12
340.892646
 22
1891.836264
 32
0.0
 13
340.892646
 23
1891.836264
 33
0.0
  0
MTEXT
  5
1484
100
AcDbEntity
  8
0
  6
BYBLOCK
 62
     0
100
AcDbMText
 10
298.392646
 20
1903.940642
 30
0.0
 40
20.0
 41
0.0
 71
     5
 72
     1
  1
\A1;85
  0
POINT
  5
1485
100
AcDbEntity
  8
DEFPOINTS
  6
BYBLOCK
 62
     0
100
AcDbPoint
 10
255.892646
 20
1857.118081
 30
0.0
  0
POINT
  5
1486
100
AcDbEntity
  8
DEFPOINTS
  6
BYBLOCK
 62
     0
100
AcDbPoint
 10
340.892646
 20
1854.638208
 30
0.0
  0
POINT
  5
1487
100
AcDbEntity
  8
DEFPOINTS
  6
BYBLOCK
 62
     0
100
AcDbPoint
 10
340.892646
 20
1891.836264
 30
0.0
  0
ENDBLK
  5
1488
100
AcDbEntity
  8
0
100
AcDbBlockEnd
  0
BLOCK
  5
1489
100
AcDbEntity
  8
0
100
AcDbBlockBegin
  2
*D28
 70
     1
 10
0.0
 20
0.0
 30
0.0
  3
*D28
  1

  0
LINE
  5
148A
100
AcDbEntity
  8
0
  6
BYBLOCK
 62
     0
100
AcDbLine
 10
550.892646
 20
1856.742585
 30
0.0
 11
550.892646
 21
1896.045019
 31
0.0
  0
LINE
  5
148B
100
AcDbEntity
  8
0
  6
BYBLOCK
 62
     0
100
AcDbLine
 10
349.310154
 20
1891.836264
 30
0.0
 11
542.475137
 21
1891.836264
 31
0.0
  0
SOLID
  5
148C
100
AcDbEntity
  8
0
  6
BYBLOCK
 62
     0
100
AcDbTrace
 10
349.310154
 20
1893.239183
 30
0.0
 11
349.310154
 21
1890.433346
 31
0.0
 12
340.892646
 22
1891.836264
 32
0.0
 13
340.892646
 23
1891.836264
 33
0.0
  0
SOLID
  5
148D
100
AcDbEntity
  8
0
  6
BYBLOCK
 62
     0
100
AcDbTrace
 10
542.475137
 20
1893.239183
 30
0.0
 11
542.475137
 21
1890.433346
 31
0.0
 12
550.892646
 22
1891.836264
 32
0.0
 13
550.892646
 23
1891.836264
 33
0.0
  0
MTEXT
  5
148E
100
AcDbEntity
  8
0
  6
BYBLOCK
 62
     0
100
AcDbMText
 10
445.892646
 20
1903.940642
 30
0.0
 40
20.0
 41
0.0
 71
     5
 72
     1
  1
\A1;210
  0
POINT
  5
148F
100
AcDbEntity
  8
DEFPOINTS
  6
BYBLOCK
 62
     0
100
AcDbPoint
 10
340.892646
 20
1854.638208
 30
0.0
  0
POINT
  5
1490
100
AcDbEntity
  8
DEFPOINTS
  6
BYBLOCK
 62
     0
100
AcDbPoint
 10
550.892646
 20
1854.638208
 30
0.0
  0
POINT
  5
1491
100
AcDbEntity
  8
DEFPOINTS
  6
BYBLOCK
 62
     0
100
AcDbPoint
 10
550.892646
 20
1891.836264
 30
0.0
  0
ENDBLK
  5
1492
100
AcDbEntity
  8
0
100
AcDbBlockEnd
  0
BLOCK
  5
1493
100
AcDbEntity
  8
0
100
AcDbBlockBegin
  2
*D29
 70
     1
 10
0.0
 20
0.0
 30
0.0
  3
*D29
  1

  0
LINE
  5
1494
100
AcDbEntity
  8
0
  6
BYBLOCK
 62
     0
100
AcDbLine
 10
680.892646
 20
1854.262712
 30
0.0
 11
680.892646
 21
1896.045019
 31
0.0
  0
LINE
  5
1495
100
AcDbEntity
  8
0
  6
BYBLOCK
 62
     0
100
AcDbLine
 10
559.310154
 20
1891.836264
 30
0.0
 11
672.475137
 21
1891.836264
 31
0.0
  0
SOLID
  5
1496
100
AcDbEntity
  8
0
  6
BYBLOCK
 62
     0
100
AcDbTrace
 10
559.310154
 20
1893.239183
 30
0.0
 11
559.310154
 21
1890.433346
 31
0.0
 12
550.892646
 22
1891.836264
 32
0.0
 13
550.892646
 23
1891.836264
 33
0.0
  0
SOLID
  5
1497
100
AcDbEntity
  8
0
  6
BYBLOCK
 62
     0
100
AcDbTrace
 10
672.475137
 20
1893.239183
 30
0.0
 11
672.475137
 21
1890.433346
 31
0.0
 12
680.892646
 22
1891.836264
 32
0.0
 13
680.892646
 23
1891.836264
 33
0.0
  0
MTEXT
  5
1498
100
AcDbEntity
  8
0
  6
BYBLOCK
 62
     0
100
AcDbMText
 10
615.892646
 20
1903.940642
 30
0.0
 40
20.0
 41
0.0
 71
     5
 72
     1
  1
\A1;130
  0
POINT
  5
1499
100
AcDbEntity
  8
DEFPOINTS
  6
BYBLOCK
 62
     0
100
AcDbPoint
 10
550.892646
 20
1854.638208
 30
0.0
  0
POINT
  5
149A
100
AcDbEntity
  8
DEFPOINTS
  6
BYBLOCK
 62
     0
100
AcDbPoint
 10
680.892646
 20
1852.158335
 30
0.0
  0
POINT
  5
149B
100
AcDbEntity
  8
DEFPOINTS
  6
BYBLOCK
 62
     0
100
AcDbPoint
 10
680.892646
 20
1891.836264
 30
0.0
  0
ENDBLK
  5
149C
100
AcDbEntity
  8
0
100
AcDbBlockEnd
  0
BLOCK
  5
149D
100
AcDbEntity
  8
0
100
AcDbBlockBegin
  2
*D30
 70
     1
 10
0.0
 20
0.0
 30
0.0
  3
*D30
  1

  0
LINE
  5
149E
100
AcDbEntity
  8
0
  6
BYBLOCK
 62
     0
100
AcDbLine
 10
890.892646
 20
1859.222458
 30
0.0
 11
890.892646
 21
1896.045019
 31
0.0
  0
LINE
  5
149F
100
AcDbEntity
  8
0
  6
BYBLOCK
 62
     0
100
AcDbLine
 10
689.310154
 20
1891.836264
 30
0.0
 11
882.475137
 21
1891.836264
 31
0.0
  0
SOLID
  5
14A0
100
AcDbEntity
  8
0
  6
BYBLOCK
 62
     0
100
AcDbTrace
 10
689.310154
 20
1893.239183
 30
0.0
 11
689.310154
 21
1890.433346
 31
0.0
 12
680.892646
 22
1891.836264
 32
0.0
 13
680.892646
 23
1891.836264
 33
0.0
  0
SOLID
  5
14A1
100
AcDbEntity
  8
0
  6
BYBLOCK
 62
     0
100
AcDbTrace
 10
882.475137
 20
1893.239183
 30
0.0
 11
882.475137
 21
1890.433346
 31
0.0
 12
890.892646
 22
1891.836264
 32
0.0
 13
890.892646
 23
1891.836264
 33
0.0
  0
MTEXT
  5
14A2
100
AcDbEntity
  8
0
  6
BYBLOCK
 62
     0
100
AcDbMText
 10
785.892646
 20
1903.940642
 30
0.0
 40
20.0
 41
0.0
 71
     5
 72
     1
  1
\A1;210
  0
POINT
  5
14A3
100
AcDbEntity
  8
DEFPOINTS
  6
BYBLOCK
 62
     0
100
AcDbPoint
 10
680.892646
 20
1852.158335
 30
0.0
  0
POINT
  5
14A4
100
AcDbEntity
  8
DEFPOINTS
  6
BYBLOCK
 62
     0
100
AcDbPoint
 10
890.892646
 20
1857.118081
 30
0.0
  0
POINT
  5
14A5
100
AcDbEntity
  8
DEFPOINTS
  6
BYBLOCK
 62
     0
100
AcDbPoint
 10
890.892646
 20
1891.836264
 30
0.0
  0
ENDBLK
  5
14A6
100
AcDbEntity
  8
0
100
AcDbBlockEnd
  0
BLOCK
  5
14A7
100
AcDbEntity
  8
0
100
AcDbBlockBegin
  2
*D31
 70
     1
 10
0.0
 20
0.0
 30
0.0
  3
*D31
  1

  0
LINE
  5
14A8
100
AcDbEntity
  8
0
  6
BYBLOCK
 62
     0
100
AcDbLine
 10
975.892646
 20
1856.742585
 30
0.0
 11
975.892646
 21
1896.045019
 31
0.0
  0
LINE
  5
14A9
100
AcDbEntity
  8
0
  6
BYBLOCK
 62
     0
100
AcDbLine
 10
899.310154
 20
1891.836264
 30
0.0
 11
967.475137
 21
1891.836264
 31
0.0
  0
SOLID
  5
14AA
100
AcDbEntity
  8
0
  6
BYBLOCK
 62
     0
100
AcDbTrace
 10
899.310154
 20
1893.239183
 30
0.0
 11
899.310154
 21
1890.433346
 31
0.0
 12
890.892646
 22
1891.836264
 32
0.0
 13
890.892646
 23
1891.836264
 33
0.0
  0
SOLID
  5
14AB
100
AcDbEntity
  8
0
  6
BYBLOCK
 62
     0
100
AcDbTrace
 10
967.475137
 20
1893.239183
 30
0.0
 11
967.475137
 21
1890.433346
 31
0.0
 12
975.892646
 22
1891.836264
 32
0.0
 13
975.892646
 23
1891.836264
 33
0.0
  0
MTEXT
  5
14AC
100
AcDbEntity
  8
0
  6
BYBLOCK
 62
     0
100
AcDbMText
 10
933.392646
 20
1903.940642
 30
0.0
 40
20.0
 41
0.0
 71
     5
 72
     1
  1
\A1;85
  0
POINT
  5
14AD
100
AcDbEntity
  8
DEFPOINTS
  6
BYBLOCK
 62
     0
100
AcDbPoint
 10
890.892646
 20
1857.118081
 30
0.0
  0
POINT
  5
14AE
100
AcDbEntity
  8
DEFPOINTS
  6
BYBLOCK
 62
     0
100
AcDbPoint
 10
975.892646
 20
1854.638208
 30
0.0
  0
POINT
  5
14AF
100
AcDbEntity
  8
DEFPOINTS
  6
BYBLOCK
 62
     0
100
AcDbPoint
 10
975.892646
 20
1891.836264
 30
0.0
  0
ENDBLK
  5
14B0
100
AcDbEntity
  8
0
100
AcDbBlockEnd
  0
BLOCK
  5
14D4
100
AcDbEntity
  8
0
100
AcDbBlockBegin
  2
*D32
 70
     1
 10
0.0
 20
0.0
 30
0.0
  3
*D32
  1

  0
LINE
  5
14D5
100
AcDbEntity
  8
0
  6
BYBLOCK
 62
     0
100
AcDbLine
 10
255.892646
 20
1861.702325
 30
0.0
 11
255.892646
 21
1955.561912
 31
0.0
  0
LINE
  5
14D6
100
AcDbEntity
  8
0
  6
BYBLOCK
 62
     0
100
AcDbLine
 10
975.892646
 20
1861.702325
 30
0.0
 11
975.892646
 21
1955.561912
 31
0.0
  0
LINE
  5
14D7
100
AcDbEntity
  8
0
  6
BYBLOCK
 62
     0
100
AcDbLine
 10
264.310154
 20
1951.353158
 30
0.0
 11
967.475137
 21
1951.353158
 31
0.0
  0
SOLID
  5
14D8
100
AcDbEntity
  8
0
  6
BYBLOCK
 62
     0
100
AcDbTrace
 10
264.310154
 20
1952.756076
 30
0.0
 11
264.310154
 21
1949.95024
 31
0.0
 12
255.892646
 22
1951.353158
 32
0.0
 13
255.892646
 23
1951.353158
 33
0.0
  0
SOLID
  5
14D9
100
AcDbEntity
  8
0
  6
BYBLOCK
 62
     0
100
AcDbTrace
 10
967.475137
 20
1952.756076
 30
0.0
 11
967.475137
 21
1949.95024
 31
0.0
 12
975.892646
 22
1951.353158
 32
0.0
 13
975.892646
 23
1951.353158
 33
0.0
  0
MTEXT
  5
14DA
100
AcDbEntity
  8
0
  6
BYBLOCK
 62
     0
100
AcDbMText
 10
615.892646
 20
1963.457535
 30
0.0
 40
20.0
 41
0.0
 71
     5
 72
     1
  1
\A1;720
  0
POINT
  5
14DB
100
AcDbEntity
  8
DEFPOINTS
  6
BYBLOCK
 62
     0
100
AcDbPoint
 10
255.892646
 20
1859.597948
 30
0.0
  0
POINT
  5
14DC
100
AcDbEntity
  8
DEFPOINTS
  6
BYBLOCK
 62
     0
100
AcDbPoint
 10
975.892646
 20
1859.597948
 30
0.0
  0
POINT
  5
14DD
100
AcDbEntity
  8
DEFPOINTS
  6
BYBLOCK
 62
     0
100
AcDbPoint
 10
975.892646
 20
1951.353158
 30
0.0
  0
ENDBLK
  5
14DE
100
AcDbEntity
  8
0
100
AcDbBlockEnd
  0
BLOCK
  5
14F8
100
AcDbEntity
  8
0
100
AcDbBlockBegin
  2
*D33
 70
     1
 10
0.0
 20
0.0
 30
0.0
  3
*D33
  1

  0
LINE
  5
14F9
100
AcDbEntity
  8
0
  6
BYBLOCK
 62
     0
100
AcDbLine
 10
295.892646
 20
1294.397696
 30
0.0
 11
295.892646
 21
1380.737301
 31
0.0
  0
LINE
  5
14FA
100
AcDbEntity
  8
0
  6
BYBLOCK
 62
     0
100
AcDbLine
 10
935.892646
 20
1294.397696
 30
0.0
 11
935.892646
 21
1380.737301
 31
0.0
  0
LINE
  5
14FB
100
AcDbEntity
  8
0
  6
BYBLOCK
 62
     0
100
AcDbLine
 10
304.310154
 20
1376.528547
 30
0.0
 11
927.475137
 21
1376.528547
 31
0.0
  0
SOLID
  5
14FC
100
AcDbEntity
  8
0
  6
BYBLOCK
 62
     0
100
AcDbTrace
 10
304.310154
 20
1377.931465
 30
0.0
 11
304.310154
 21
1375.125629
 31
0.0
 12
295.892646
 22
1376.528547
 32
0.0
 13
295.892646
 23
1376.528547
 33
0.0
  0
SOLID
  5
14FD
100
AcDbEntity
  8
0
  6
BYBLOCK
 62
     0
100
AcDbTrace
 10
927.475137
 20
1377.931465
 30
0.0
 11
927.475137
 21
1375.125629
 31
0.0
 12
935.892646
 22
1376.528547
 32
0.0
 13
935.892646
 23
1376.528547
 33
0.0
  0
MTEXT
  5
14FE
100
AcDbEntity
  8
0
  6
BYBLOCK
 62
     0
100
AcDbMText
 10
615.892646
 20
1388.632924
 30
0.0
 40
20.0
 41
0.0
 71
     5
 72
     1
  1
\A1;640
  0
POINT
  5
14FF
100
AcDbEntity
  8
DEFPOINTS
  6
BYBLOCK
 62
     0
100
AcDbPoint
 10
295.892646
 20
1292.293319
 30
0.0
  0
POINT
  5
1500
100
AcDbEntity
  8
DEFPOINTS
  6
BYBLOCK
 62
     0
100
AcDbPoint
 10
935.892646
 20
1292.293319
 30
0.0
  0
POINT
  5
1501
100
AcDbEntity
  8
DEFPOINTS
  6
BYBLOCK
 62
     0
100
AcDbPoint
 10
935.892646
 20
1376.528547
 30
0.0
  0
ENDBLK
  5
1502
100
AcDbEntity
  8
0
100
AcDbBlockEnd
  0
BLOCK
  5
1515
100
AcDbEntity
  8
0
100
AcDbBlockBegin
  2
A$C69A01657
 70
     0
 10
0.0
 20
0.0
 30
0.0
  3
A$C69A01657
  1

  0
LINE
  5
1505
100
AcDbEntity
  8
0
100
AcDbLine
 10
12.0
 20
40.999998
 30
0.0
 11
12.0
 21
-0.000002
 31
0.0
  0
LINE
  5
1506
100
AcDbEntity
  8
0
100
AcDbLine
 10
0.0
 20
32.999998
 30
0.0
 11
0.0
 21
7.999998
 31
0.0
  0
LINE
  5
1507
100
AcDbEntity
  8
0
100
AcDbLine
 10
29.0
 20
40.999998
 30
0.0
 11
29.0
 21
-0.000002
 31
0.0
  0
LINE
  5
1508
100
AcDbEntity
  8
0
100
AcDbLine
 10
41.0
 20
32.999998
 30
0.0
 11
41.0
 21
7.999998
 31
0.0
  0
LINE
  5
1509
100
AcDbEntity
  8
0
100
AcDbLine
 10
12.0
 20
-0.000002
 30
0.0
 11
29.0
 21
-0.000002
 31
0.0
  0
LINE
  5
150A
100
AcDbEntity
  8
0
100
AcDbLine
 10
12.0
 20
10.499998
 30
0.0
 11
29.0
 21
10.499998
 31
0.0
  0
LINE
  5
150B
100
AcDbEntity
  8
0
100
AcDbLine
 10
12.0
 20
7.999998
 30
0.0
 11
0.0
 21
7.999998
 31
0.0
  0
LINE
  5
150C
100
AcDbEntity
  8
0
100
AcDbLine
 10
12.0
 20
15.499998
 30
0.0
 11
0.0
 21
15.499998
 31
0.0
  0
LINE
  5
150D
100
AcDbEntity
  8
0
100
AcDbLine
 10
29.0
 20
7.999998
 30
0.0
 11
41.0
 21
7.999998
 31
0.0
  0
LINE
  5
150E
100
AcDbEntity
  8
0
100
AcDbLine
 10
29.0
 20
15.499998
 30
0.0
 11
41.0
 21
15.499998
 31
0.0
  0
LINE
  5
150F
100
AcDbEntity
  8
0
100
AcDbLine
 10
12.0
 20
40.999998
 30
0.0
 11
29.0
 21
40.999998
 31
0.0
  0
LINE
  5
1510
100
AcDbEntity
  8
0
100
AcDbLine
 10
12.0
 20
30.499998
 30
0.0
 11
29.0
 21
30.499998
 31
0.0
  0
LINE
  5
1511
100
AcDbEntity
  8
0
100
AcDbLine
 10
12.0
 20
32.999998
 30
0.0
 11
0.0
 21
32.999998
 31
0.0
  0
LINE
  5
1512
100
AcDbEntity
  8
0
100
AcDbLine
 10
12.0
 20
25.499998
 30
0.0
 11
0.0
 21
25.499998
 31
0.0
  0
LINE
  5
1513
100
AcDbEntity
  8
0
100
AcDbLine
 10
29.0
 20
32.999998
 30
0.0
 11
41.0
 21
32.999998
 31
0.0
  0
LINE
  5
1514
100
AcDbEntity
  8
0
100
AcDbLine
 10
29.0
 20
25.499998
 30
0.0
 11
41.0
 21
25.499998
 31
0.0
  0
ENDBLK
  5
1516
100
AcDbEntity
  8
0
100
AcDbBlockEnd
  0
BLOCK
  5
1523
100
AcDbEntity
  8
0
100
AcDbBlockBegin
  2
A$C78CB6814
 70
     0
 10
0.0
 20
0.0
 30
0.0
  3
A$C78CB6814
  1

  0
MTEXT
  5
1521
102
{ACAD_REACTORS
330
1522
102
}
100
AcDbEntity
  8
0
100
AcDbMText
 10
128.72804
 20
14.88847
 30
0.0
 40
20.0
 41
0.0
 71
     6
 72
     1
  1
\A1;\fMS UI Gothic|b0|i0|c128|p50;ガスコック
  0
LEADER
  5
1522
100
AcDbEntity
  8
0
100
AcDbLeader
  3
STANDARD_WS
 73
     0
 74
     0
 75
     1
 40
25.568182
 41
99.204545
 76
     3
 10
0.0
 20
52.383206
 30
0.0
 10
30.200901
 20
0.000002
 30
0.0
 10
38.618409
 20
0.000002
 30
0.0
 77
   256
340
1521
213
11.19929190714336
223
0.0
233
0.0
  0
ENDBLK
  5
1524
100
AcDbEntity
  8
0
100
AcDbBlockEnd
  0
BLOCK
  5
1560
100
AcDbEntity
  8
0
100
AcDbBlockBegin
  2
*D36
 70
     1
 10
0.0
 20
0.0
 30
0.0
  3
*D36
  1

  0
LINE
  5
1557
100
AcDbEntity
  8
0
  6
BYBLOCK
 62
     0
100
AcDbLine
 10
1531.389366
 20
859.993351
 30
0.0
 11
1531.389366
 21
1064.034225
 31
0.0
  0
LINE
  5
1558
100
AcDbEntity
  8
0
  6
BYBLOCK
 62
     0
100
AcDbLine
 10
2121.389366
 20
961.342865
 30
0.0
 11
2121.389366
 21
1064.034225
 31
0.0
  0
LINE
  5
1559
100
AcDbEntity
  8
0
  6
BYBLOCK
 62
     0
100
AcDbLine
 10
1539.806875
 20
1059.825471
 30
0.0
 11
2112.971858
 21
1059.825471
 31
0.0
  0
SOLID
  5
155A
100
AcDbEntity
  8
0
  6
BYBLOCK
 62
     0
100
AcDbTrace
 10
1539.806875
 20
1061.228389
 30
0.0
 11
1539.806875
 21
1058.422553
 31
0.0
 12
1531.389366
 22
1059.825471
 32
0.0
 13
1531.389366
 23
1059.825471
 33
0.0
  0
SOLID
  5
155B
100
AcDbEntity
  8
0
  6
BYBLOCK
 62
     0
100
AcDbTrace
 10
2112.971858
 20
1061.228389
 30
0.0
 11
2112.971858
 21
1058.422553
 31
0.0
 12
2121.389366
 22
1059.825471
 32
0.0
 13
2121.389366
 23
1059.825471
 33
0.0
  0
MTEXT
  5
155C
100
AcDbEntity
  8
0
  6
BYBLOCK
 62
     0
100
AcDbMText
 10
1826.389366
 20
1071.929848
 30
0.0
 40
20.0
 41
0.0
 71
     5
 72
     1
  1
\A1;590
  0
POINT
  5
155D
100
AcDbEntity
  8
DEFPOINTS
  6
BYBLOCK
 62
     0
100
AcDbPoint
 10
1531.389366
 20
857.888974
 30
0.0
  0
POINT
  5
155E
100
AcDbEntity
  8
DEFPOINTS
  6
BYBLOCK
 62
     0
100
AcDbPoint
 10
2121.389366
 20
959.238487
 30
0.0
  0
POINT
  5
155F
100
AcDbEntity
  8
DEFPOINTS
  6
BYBLOCK
 62
     0
100
AcDbPoint
 10
2121.389366
 20
1059.825471
 30
0.0
  0
ENDBLK
  5
1561
100
AcDbEntity
  8
0
100
AcDbBlockEnd
  0
BLOCK
  5
156C
100
AcDbEntity
  8
0
100
AcDbBlockBegin
  2
*D37
 70
     1
 10
0.0
 20
0.0
 30
0.0
  3
*D37
  1

  0
LINE
  5
1563
100
AcDbEntity
  8
0
  6
BYBLOCK
 62
     0
100
AcDbLine
 10
1531.389366
 20
859.993351
 30
0.0
 11
1531.389366
 21
909.201833
 31
0.0
  0
LINE
  5
1564
100
AcDbEntity
  8
0
  6
BYBLOCK
 62
     0
100
AcDbLine
 10
1571.389366
 20
832.434582
 30
0.0
 11
1571.389366
 21
909.201833
 31
0.0
  0
LINE
  5
1565
100
AcDbEntity
  8
0
  6
BYBLOCK
 62
     0
100
AcDbLine
 10
1539.806875
 20
904.993079
 30
0.0
 11
1562.971858
 21
904.993079
 31
0.0
  0
SOLID
  5
1566
100
AcDbEntity
  8
0
  6
BYBLOCK
 62
     0
100
AcDbTrace
 10
1539.806875
 20
906.395997
 30
0.0
 11
1539.806875
 21
903.590161
 31
0.0
 12
1531.389366
 22
904.993079
 32
0.0
 13
1531.389366
 23
904.993079
 33
0.0
  0
SOLID
  5
1567
100
AcDbEntity
  8
0
  6
BYBLOCK
 62
     0
100
AcDbTrace
 10
1562.971858
 20
906.395997
 30
0.0
 11
1562.971858
 21
903.590161
 31
0.0
 12
1571.389366
 22
904.993079
 32
0.0
 13
1571.389366
 23
904.993079
 33
0.0
  0
MTEXT
  5
1568
100
AcDbEntity
  8
0
  6
BYBLOCK
 62
     0
100
AcDbMText
 10
1551.389366
 20
917.097456
 30
0.0
 40
20.0
 41
0.0
 71
     5
 72
     1
  1
\A1;40
  0
POINT
  5
1569
100
AcDbEntity
  8
DEFPOINTS
  6
BYBLOCK
 62
     0
100
AcDbPoint
 10
1531.389366
 20
857.888974
 30
0.0
  0
POINT
  5
156A
100
AcDbEntity
  8
DEFPOINTS
  6
BYBLOCK
 62
     0
100
AcDbPoint
 10
1571.389366
 20
830.330205
 30
0.0
  0
POINT
  5
156B
100
AcDbEntity
  8
DEFPOINTS
  6
BYBLOCK
 62
     0
100
AcDbPoint
 10
1571.389366
 20
904.993079
 30
0.0
  0
ENDBLK
  5
156D
100
AcDbEntity
  8
0
100
AcDbBlockEnd
  0
BLOCK
  5
1577
100
AcDbEntity
  8
0
100
AcDbBlockBegin
  2
*D38
 70
     1
 10
0.0
 20
0.0
 30
0.0
  3
*D38
  1

  0
LINE
  5
156F
100
AcDbEntity
  8
0
  6
BYBLOCK
 62
     0
100
AcDbLine
 10
2001.389366
 20
833.156704
 30
0.0
 11
2001.389366
 21
909.201833
 31
0.0
  0
LINE
  5
1570
100
AcDbEntity
  8
0
  6
BYBLOCK
 62
     0
100
AcDbLine
 10
1579.806875
 20
904.993079
 30
0.0
 11
1992.971858
 21
904.993079
 31
0.0
  0
SOLID
  5
1571
100
AcDbEntity
  8
0
  6
BYBLOCK
 62
     0
100
AcDbTrace
 10
1579.806875
 20
906.395997
 30
0.0
 11
1579.806875
 21
903.590161
 31
0.0
 12
1571.389366
 22
904.993079
 32
0.0
 13
1571.389366
 23
904.993079
 33
0.0
  0
SOLID
  5
1572
100
AcDbEntity
  8
0
  6
BYBLOCK
 62
     0
100
AcDbTrace
 10
1992.971858
 20
906.395997
 30
0.0
 11
1992.971858
 21
903.590161
 31
0.0
 12
2001.389366
 22
904.993079
 32
0.0
 13
2001.389366
 23
904.993079
 33
0.0
  0
MTEXT
  5
1573
100
AcDbEntity
  8
0
  6
BYBLOCK
 62
     0
100
AcDbMText
 10
1786.389366
 20
917.097456
 30
0.0
 40
20.0
 41
0.0
 71
     5
 72
     1
  1
\A1;430
  0
POINT
  5
1574
100
AcDbEntity
  8
DEFPOINTS
  6
BYBLOCK
 62
     0
100
AcDbPoint
 10
1571.389366
 20
830.330205
 30
0.0
  0
POINT
  5
1575
100
AcDbEntity
  8
DEFPOINTS
  6
BYBLOCK
 62
     0
100
AcDbPoint
 10
2001.389366
 20
831.052327
 30
0.0
  0
POINT
  5
1576
100
AcDbEntity
  8
DEFPOINTS
  6
BYBLOCK
 62
     0
100
AcDbPoint
 10
2001.389366
 20
904.993079
 30
0.0
  0
ENDBLK
  5
1578
100
AcDbEntity
  8
0
100
AcDbBlockEnd
  0
BLOCK
  5
1583
100
AcDbEntity
  8
0
100
AcDbBlockBegin
  2
*D39
 70
     1
 10
0.0
 20
0.0
 30
0.0
  3
*D39
  1

  0
LINE
  5
157A
100
AcDbEntity
  8
0
  6
BYBLOCK
 62
     0
100
AcDbLine
 10
1866.784989
 20
722.87257
 30
0.0
 11
1863.513122
 21
722.87257
 31
0.0
  0
LINE
  5
157B
100
AcDbEntity
  8
0
  6
BYBLOCK
 62
     0
100
AcDbLine
 10
1866.784989
 20
842.87257
 30
0.0
 11
1863.513122
 21
842.87257
 31
0.0
  0
LINE
  5
157C
100
AcDbEntity
  8
0
  6
BYBLOCK
 62
     0
100
AcDbLine
 10
1867.721877
 20
731.290079
 30
0.0
 11
1867.721877
 21
834.455062
 31
0.0
  0
SOLID
  5
157D
100
AcDbEntity
  8
0
  6
BYBLOCK
 62
     0
100
AcDbTrace
 10
1866.318959
 20
731.290079
 30
0.0
 11
1869.124795
 21
731.290079
 31
0.0
 12
1867.721877
 22
722.87257
 32
0.0
 13
1867.721877
 23
722.87257
 33
0.0
  0
SOLID
  5
157E
100
AcDbEntity
  8
0
  6
BYBLOCK
 62
     0
100
AcDbTrace
 10
1866.318959
 20
834.455062
 30
0.0
 11
1869.124795
 21
834.455062
 31
0.0
 12
1867.721877
 22
842.87257
 32
0.0
 13
1867.721877
 23
842.87257
 33
0.0
  0
MTEXT
  5
157F
100
AcDbEntity
  8
0
  6
BYBLOCK
 62
     0
100
AcDbMText
 10
1855.6175
 20
782.87257
 30
0.0
 40
20.0
 41
0.0
 71
     5
 72
     1
  1
\A1;120
 11
0.0
 21
1.0
 31
0.0
  0
POINT
  5
1580
100
AcDbEntity
  8
DEFPOINTS
  6
BYBLOCK
 62
     0
100
AcDbPoint
 10
1868.889366
 20
722.87257
 30
0.0
  0
POINT
  5
1581
100
AcDbEntity
  8
DEFPOINTS
  6
BYBLOCK
 62
     0
100
AcDbPoint
 10
1868.889366
 20
842.87257
 30
0.0
  0
POINT
  5
1582
100
AcDbEntity
  8
DEFPOINTS
  6
BYBLOCK
 62
     0
100
AcDbPoint
 10
1867.721877
 20
842.87257
 30
0.0
  0
ENDBLK
  5
1584
100
AcDbEntity
  8
0
100
AcDbBlockEnd
  0
BLOCK
  5
158F
100
AcDbEntity
  8
0
100
AcDbBlockBegin
  2
*D40
 70
     1
 10
0.0
 20
0.0
 30
0.0
  3
*D40
  1

  0
LINE
  5
1586
100
AcDbEntity
  8
0
  6
BYBLOCK
 62
     0
100
AcDbLine
 10
2121.389366
 20
961.342865
 30
0.0
 11
2121.389366
 21
1029.272568
 31
0.0
  0
LINE
  5
1587
100
AcDbEntity
  8
0
  6
BYBLOCK
 62
     0
100
AcDbLine
 10
2031.389366
 20
964.807356
 30
0.0
 11
2031.389366
 21
1029.272568
 31
0.0
  0
LINE
  5
1588
100
AcDbEntity
  8
0
  6
BYBLOCK
 62
     0
100
AcDbLine
 10
2112.971858
 20
1025.063814
 30
0.0
 11
2039.806875
 21
1025.063814
 31
0.0
  0
SOLID
  5
1589
100
AcDbEntity
  8
0
  6
BYBLOCK
 62
     0
100
AcDbTrace
 10
2112.971858
 20
1026.466732
 30
0.0
 11
2112.971858
 21
1023.660896
 31
0.0
 12
2121.389366
 22
1025.063814
 32
0.0
 13
2121.389366
 23
1025.063814
 33
0.0
  0
SOLID
  5
158A
100
AcDbEntity
  8
0
  6
BYBLOCK
 62
     0
100
AcDbTrace
 10
2039.806875
 20
1026.466732
 30
0.0
 11
2039.806875
 21
1023.660896
 31
0.0
 12
2031.389366
 22
1025.063814
 32
0.0
 13
2031.389366
 23
1025.063814
 33
0.0
  0
MTEXT
  5
158B
100
AcDbEntity
  8
0
  6
BYBLOCK
 62
     0
100
AcDbMText
 10
2076.389366
 20
1037.168191
 30
0.0
 40
20.0
 41
0.0
 71
     5
 72
     1
  1
\A1;90
  0
POINT
  5
158C
100
AcDbEntity
  8
DEFPOINTS
  6
BYBLOCK
 62
     0
100
AcDbPoint
 10
2121.389366
 20
959.238487
 30
0.0
  0
POINT
  5
158D
100
AcDbEntity
  8
DEFPOINTS
  6
BYBLOCK
 62
     0
100
AcDbPoint
 10
2031.389366
 20
962.702979
 30
0.0
  0
POINT
  5
158E
100
AcDbEntity
  8
DEFPOINTS
  6
BYBLOCK
 62
     0
100
AcDbPoint
 10
2031.389366
 20
1025.063814
 30
0.0
  0
ENDBLK
  5
1590
100
AcDbEntity
  8
0
100
AcDbBlockEnd
  0
BLOCK
  5
159B
100
AcDbEntity
  8
0
100
AcDbBlockBegin
  2
*D41
 70
     1
 10
0.0
 20
0.0
 30
0.0
  3
*D41
  1

  0
LINE
  5
1592
100
AcDbEntity
  8
0
  6
BYBLOCK
 62
     0
100
AcDbLine
 10
1573.493743
 20
817.87257
 30
0.0
 11
1588.608686
 21
817.87257
 31
0.0
  0
LINE
  5
1593
100
AcDbEntity
  8
0
  6
BYBLOCK
 62
     0
100
AcDbLine
 10
1573.493743
 20
747.87257
 30
0.0
 11
1588.608686
 21
747.87257
 31
0.0
  0
LINE
  5
1594
100
AcDbEntity
  8
0
  6
BYBLOCK
 62
     0
100
AcDbLine
 10
1584.399932
 20
809.455062
 30
0.0
 11
1584.399932
 21
756.290079
 31
0.0
  0
SOLID
  5
1595
100
AcDbEntity
  8
0
  6
BYBLOCK
 62
     0
100
AcDbTrace
 10
1582.997014
 20
809.455062
 30
0.0
 11
1585.80285
 21
809.455062
 31
0.0
 12
1584.399932
 22
817.87257
 32
0.0
 13
1584.399932
 23
817.87257
 33
0.0
  0
SOLID
  5
1596
100
AcDbEntity
  8
0
  6
BYBLOCK
 62
     0
100
AcDbTrace
 10
1582.997014
 20
756.290079
 30
0.0
 11
1585.80285
 21
756.290079
 31
0.0
 12
1584.399932
 22
747.87257
 32
0.0
 13
1584.399932
 23
747.87257
 33
0.0
  0
MTEXT
  5
1597
100
AcDbEntity
  8
0
  6
BYBLOCK
 62
     0
100
AcDbMText
 10
1572.295555
 20
782.87257
 30
0.0
 40
20.0
 41
0.0
 71
     5
 72
     1
  1
\A1;70
 11
0.0
 21
1.0
 31
0.0
  0
POINT
  5
1598
100
AcDbEntity
  8
DEFPOINTS
  6
BYBLOCK
 62
     0
100
AcDbPoint
 10
1571.389366
 20
817.87257
 30
0.0
  0
POINT
  5
1599
100
AcDbEntity
  8
DEFPOINTS
  6
BYBLOCK
 62
     0
100
AcDbPoint
 10
1571.389366
 20
747.87257
 30
0.0
  0
POINT
  5
159A
100
AcDbEntity
  8
DEFPOINTS
  6
BYBLOCK
 62
     0
100
AcDbPoint
 10
1584.399932
 20
747.87257
 30
0.0
  0
ENDBLK
  5
159C
100
AcDbEntity
  8
0
100
AcDbBlockEnd
  0
BLOCK
  5
15A7
100
AcDbEntity
  8
0
100
AcDbBlockBegin
  2
*D42
 70
     1
 10
0.0
 20
0.0
 30
0.0
  3
*D42
  1

  0
LINE
  5
159E
100
AcDbEntity
  8
0
  6
BYBLOCK
 62
     0
100
AcDbLine
 10
1738.493743
 20
732.87257
 30
0.0
 11
1743.483655
 21
732.87257
 31
0.0
  0
LINE
  5
159F
100
AcDbEntity
  8
0
  6
BYBLOCK
 62
     0
100
AcDbLine
 10
1738.493743
 20
817.87257
 30
0.0
 11
1743.483655
 21
817.87257
 31
0.0
  0
LINE
  5
15A0
100
AcDbEntity
  8
0
  6
BYBLOCK
 62
     0
100
AcDbLine
 10
1739.274901
 20
741.290079
 30
0.0
 11
1739.274901
 21
809.455062
 31
0.0
  0
SOLID
  5
15A1
100
AcDbEntity
  8
0
  6
BYBLOCK
 62
     0
100
AcDbTrace
 10
1737.871983
 20
741.290079
 30
0.0
 11
1740.677819
 21
741.290079
 31
0.0
 12
1739.274901
 22
732.87257
 32
0.0
 13
1739.274901
 23
732.87257
 33
0.0
  0
SOLID
  5
15A2
100
AcDbEntity
  8
0
  6
BYBLOCK
 62
     0
100
AcDbTrace
 10
1737.871983
 20
809.455062
 30
0.0
 11
1740.677819
 21
809.455062
 31
0.0
 12
1739.274901
 22
817.87257
 32
0.0
 13
1739.274901
 23
817.87257
 33
0.0
  0
MTEXT
  5
15A3
100
AcDbEntity
  8
0
  6
BYBLOCK
 62
     0
100
AcDbMText
 10
1727.170524
 20
775.37257
 30
0.0
 40
20.0
 41
0.0
 71
     5
 72
     1
  1
\A1;85
 11
0.0
 21
1.0
 31
0.0
  0
POINT
  5
15A4
100
AcDbEntity
  8
DEFPOINTS
  6
BYBLOCK
 62
     0
100
AcDbPoint
 10
1736.389366
 20
732.87257
 30
0.0
  0
POINT
  5
15A5
100
AcDbEntity
  8
DEFPOINTS
  6
BYBLOCK
 62
     0
100
AcDbPoint
 10
1736.389366
 20
817.87257
 30
0.0
  0
POINT
  5
15A6
100
AcDbEntity
  8
DEFPOINTS
  6
BYBLOCK
 62
     0
100
AcDbPoint
 10
1739.274901
 20
817.87257
 30
0.0
  0
ENDBLK
  5
15A8
100
AcDbEntity
  8
0
100
AcDbBlockEnd
  0
BLOCK
  5
15B4
100
AcDbEntity
  8
0
100
AcDbBlockBegin
  2
*D43
 70
     1
 10
0.0
 20
0.0
 30
0.0
  3
*D43
  1

  0
LINE
  5
15AA
100
AcDbEntity
  8
0
  6
BYBLOCK
 62
     0
100
AcDbLine
 10
2031.389366
 20
862.555582
 30
0.0
 11
2031.389366
 21
924.410885
 31
0.0
  0
LINE
  5
15AB
100
AcDbEntity
  8
0
  6
BYBLOCK
 62
     0
100
AcDbLine
 10
2001.389366
 20
864.052895
 30
0.0
 11
2001.389366
 21
924.410885
 31
0.0
  0
LINE
  5
15AC
100
AcDbEntity
  8
0
  6
BYBLOCK
 62
     0
100
AcDbLine
 10
2022.971858
 20
920.202131
 30
0.0
 11
2009.806875
 21
920.202131
 31
0.0
  0
LINE
  5
15AD
100
AcDbEntity
  8
0
  6
BYBLOCK
 62
     0
100
AcDbLine
 10
2001.389366
 20
920.202131
 30
0.0
 11
1958.763103
 21
920.202131
 31
0.0
  0
SOLID
  5
15AE
100
AcDbEntity
  8
0
  6
BYBLOCK
 62
     0
100
AcDbTrace
 10
2022.971858
 20
921.605049
 30
0.0
 11
2022.971858
 21
918.799213
 31
0.0
 12
2031.389366
 22
920.202131
 32
0.0
 13
2031.389366
 23
920.202131
 33
0.0
  0
SOLID
  5
15AF
100
AcDbEntity
  8
0
  6
BYBLOCK
 62
     0
100
AcDbTrace
 10
2009.806875
 20
921.605049
 30
0.0
 11
2009.806875
 21
918.799213
 31
0.0
 12
2001.389366
 22
920.202131
 32
0.0
 13
2001.389366
 23
920.202131
 33
0.0
  0
MTEXT
  5
15B0
100
AcDbEntity
  8
0
  6
BYBLOCK
 62
     0
100
AcDbMText
 10
1975.867481
 20
932.306508
 30
0.0
 40
20.0
 41
0.0
 71
     5
 72
     1
  1
\A1;30
  0
POINT
  5
15B1
100
AcDbEntity
  8
DEFPOINTS
  6
BYBLOCK
 62
     0
100
AcDbPoint
 10
2031.389366
 20
860.451205
 30
0.0
  0
POINT
  5
15B2
100
AcDbEntity
  8
DEFPOINTS
  6
BYBLOCK
 62
     0
100
AcDbPoint
 10
2001.389366
 20
861.948518
 30
0.0
  0
POINT
  5
15B3
100
AcDbEntity
  8
DEFPOINTS
  6
BYBLOCK
 62
     0
100
AcDbPoint
 10
2001.389366
 20
920.202131
 30
0.0
  0
ENDBLK
  5
15B5
100
AcDbEntity
  8
0
100
AcDbBlockEnd
  0
BLOCK
  5
15F3
100
AcDbEntity
  8
0
100
AcDbBlockBegin
  2
A$C32054945
 70
     0
 10
0.0
 20
0.0
 30
0.0
  3
A$C32054945
  1

  0
DIMENSION
  5
15B7
100
AcDbEntity
  8
0
  6
DASHED2
100
AcDbDimension
  2
*D43
 10
521.074336
 20
877.329559
 30
0.0
 11
495.55245
 21
889.433936
 31
0.0
 12
-1480.315031
 22
-42.872572
 32
0.0
  3
STANDARD_WS
100
AcDbAlignedDimension
 13
551.074336
 23
817.578633
 33
0.0
 14
521.074336
 24
819.075946
 34
0.0
100
AcDbRotatedDimension
  0
DIMENSION
  5
15B8
100
AcDbEntity
  8
0
  6
DASHED2
100
AcDbDimension
  2
*D38
 10
521.074336
 20
862.120507
 30
0.0
 11
306.074336
 21
874.224884
 31
0.0
 12
-1480.315031
 22
-42.872572
 32
0.0
  3
STANDARD_WS
100
AcDbAlignedDimension
 13
91.074336
 23
787.457633
 33
0.0
 14
521.074336
 24
788.179755
 34
0.0
100
AcDbRotatedDimension
1001
ACAD
1000
DSTYLE
1002
{
1070
    75
1070
     1
1070
   287
1070
     4
1002
}
  0
DIMENSION
  5
15B9
100
AcDbEntity
  8
0
  6
DASHED2
100
AcDbDimension
  2
*D37
 10
91.074336
 20
862.120507
 30
0.0
 11
71.074336
 21
874.224884
 31
0.0
 12
-1480.315031
 22
-42.872572
 32
0.0
  3
STANDARD_WS
100
AcDbAlignedDimension
 13
51.074336
 23
815.016402
 33
0.0
 14
91.074336
 24
787.457633
 34
0.0
100
AcDbRotatedDimension
  0
DIMENSION
  5
15BA
100
AcDbEntity
  8
0
  6
DASHED2
100
AcDbDimension
  2
*D36
 10
641.074336
 20
1016.952899
 30
0.0
 11
346.074336
 21
1029.057276
 31
0.0
 12
-1480.315031
 22
-42.872572
 32
0.0
  3
STANDARD_WS
100
AcDbAlignedDimension
 13
51.074336
 23
815.016402
 33
0.0
 14
641.074336
 24
916.365915
 34
0.0
100
AcDbRotatedDimension
  0
LINE
  5
15BB
100
AcDbEntity
  8
0
  6
HIDDEN2
100
AcDbLine
 10
620.074336
 20
896.999998
 30
0.0
 11
620.074336
 21
694.999998
 31
0.0
  0
LINE
  5
15BC
100
AcDbEntity
  8
0
  6
HIDDEN2
100
AcDbLine
 10
569.074336
 20
899.999998
 30
0.0
 11
569.074336
 21
694.999998
 31
0.0
  0
LINE
  5
15BD
100
AcDbEntity
  8
0
100
AcDbLine
 10
551.074336
 20
899.999998
 30
0.0
 11
551.074336
 21
799.999998
 31
0.0
  0
LINE
  5
15BE
100
AcDbEntity
  8
0
100
AcDbLine
 10
641.074336
 20
899.999998
 30
0.0
 11
641.074336
 21
774.999998
 31
0.0
  0
LINE
  5
15BF
100
AcDbEntity
  8
0
  6
HIDDEN2
100
AcDbLine
 10
521.074336
 20
474.999998
 30
0.0
 11
623.074336
 21
518.355485
 31
0.0
  0
LINE
  5
15C0
100
AcDbEntity
  8
0
  6
HIDDEN2
100
AcDbLine
 10
521.074336
 20
694.999998
 30
0.0
 11
623.074336
 21
694.999998
 31
0.0
  0
CIRCLE
  5
15C1
100
AcDbEntity
  8
0
100
AcDbCircle
 10
618.074336
 20
19.999998
 30
0.0
 40
20.0
  0
LINE
  5
15C2
100
AcDbEntity
  8
0
100
AcDbLine
 10
636.074336
 20
39.999998
 30
0.0
 11
61.074336
 21
39.999998
 31
0.0
  0
LINE
  5
15C3
100
AcDbEntity
  8
0
100
AcDbLine
 10
17.326226
 20
-0.000002
 30
0.0
 11
731.068264
 21
-0.000002
 31
0.0
  0
LINE
  5
15C4
100
AcDbEntity
  8
0
100
AcDbLine
 10
51.074336
 20
774.999998
 30
0.0
 11
641.074336
 21
774.999998
 31
0.0
  0
LINE
  5
15C5
100
AcDbEntity
  8
0
100
AcDbLine
 10
51.074336
 20
799.999998
 30
0.0
 11
641.074336
 21
799.999998
 31
0.0
  0
LINE
  5
15C6
100
AcDbEntity
  8
0
100
AcDbLine
 10
61.074336
 20
774.999998
 30
0.0
 11
61.074336
 21
39.999998
 31
0.0
  0
CIRCLE
  5
15C7
100
AcDbEntity
  8
0
100
AcDbCircle
 10
81.074336
 20
19.999998
 30
0.0
 40
20.0
  0
LINE
  5
15C8
100
AcDbEntity
  8
0
  6
HIDDEN2
100
AcDbLine
 10
91.074336
 20
704.999998
 30
0.0
 11
256.074336
 21
689.999998
 31
0.0
  0
MTEXT
  5
15C9
102
{ACAD_REACTORS
330
15CA
102
}
100
AcDbEntity
  8
0
100
AcDbMText
 10
111.170875
 20
535.191707
 30
0.0
 40
20.0
 41
0.0
 71
     6
 72
     1
  1
\A1;\fMS UI Gothic|b0|i0|c128|p50;バーナー
  0
LEADER
  5
15CA
100
AcDbEntity
  8
0
100
AcDbLeader
  3
STANDARD_WS
 73
     0
 75
     1
 40
25.568182
 41
93.522727
 76
     3
 10
165.467409
 20
565.574062
 30
0.0
 10
121.69276
 20
520.303239
 30
0.0
 10
113.275252
 20
520.303239
 30
0.0
 77
   256
340
15C9
  0
INSERT
  5
15CB
100
AcDbEntity
  8
0
100
AcDbBlockReference
  2
A$C3D4A0DE5
 10
0.000002
 20
437.207572
 30
0.0
  0
LINE
  5
15CC
100
AcDbEntity
  8
0
  6
HIDDEN2
100
AcDbLine
 10
51.074336
 20
799.999998
 30
0.0
 11
91.074336
 21
774.999998
 31
0.0
  0
LINE
  5
15CD
100
AcDbEntity
  8
0
100
AcDbLine
 10
51.074336
 20
799.999998
 30
0.0
 11
51.074336
 21
774.999998
 31
0.0
  0
DIMENSION
  5
15CE
100
AcDbEntity
  8
0
  6
DASHED2
100
AcDbDimension
  2
*D41
 10
104.084901
 20
704.999998
 30
0.0
 11
91.980524
 21
739.999998
 31
0.0
 12
-1480.315031
 22
-42.872572
 32
0.0
  3
STANDARD_WS
100
AcDbAlignedDimension
 13
91.074336
 23
774.999998
 33
0.0
 14
91.074336
 24
704.999998
 34
0.0
 50
90.0
100
AcDbRotatedDimension
  0
LINE
  5
15CF
100
AcDbEntity
  8
0
  6
HIDDEN2
100
AcDbLine
 10
91.074336
 20
774.999998
 30
0.0
 11
91.074336
 21
704.999998
 31
0.0
  0
LINE
  5
15D0
100
AcDbEntity
  8
0
  6
HIDDEN2
100
AcDbLine
 10
216.678148
 20
545.478455
 30
0.0
 11
216.678148
 21
476.221835
 31
0.0
  0
LINE
  5
15D1
100
AcDbEntity
  8
0
  6
HIDDEN2
100
AcDbLine
 10
176.678148
 20
545.478455
 30
0.0
 11
176.678148
 21
476.221835
 31
0.0
  0
LINE
  5
15D2
100
AcDbEntity
  8
0
  6
HIDDEN2
100
AcDbLine
 10
296.074336
 20
574.999998
 30
0.0
 11
296.074336
 21
239.999998
 31
0.0
  0
LINE
  5
15D3
100
AcDbEntity
  8
0
  6
HIDDEN2
100
AcDbLine
 10
521.074336
 20
774.999998
 30
0.0
 11
521.074336
 21
255.688704
 31
0.0
  0
LINE
  5
15D4
100
AcDbEntity
  8
0
  6
HIDDEN2
100
AcDbLine
 10
296.074336
 20
239.999998
 30
0.0
 11
521.074336
 21
255.688704
 31
0.0
  0
LINE
  5
15D5
100
AcDbEntity
  8
0
  6
HIDDEN2
100
AcDbLine
 10
296.074336
 20
489.999998
 30
0.0
 11
521.074336
 21
489.999998
 31
0.0
  0
INSERT
  5
15D6
100
AcDbEntity
  8
0
100
AcDbBlockReference
  2
A$C3D4A0DE5
 10
165.880377
 20
233.113338
 30
0.0
  0
LINE
  5
15D7
100
AcDbEntity
  8
0
  6
HIDDEN2
100
AcDbLine
 10
162.030798
 20
449.122154
 30
0.0
 11
296.074336
 21
449.122154
 31
0.0
  0
LINE
  5
15D8
100
AcDbEntity
  8
0
  6
HIDDEN2
100
AcDbLine
 10
162.030798
 20
491.122154
 30
0.0
 11
296.074336
 21
491.122154
 31
0.0
  0
ARC
  5
15D9
100
AcDbEntity
  8
0
  6
HIDDEN2
100
AcDbCircle
 10
196.678148
 20
476.221835
 30
0.0
 40
20.0
100
AcDbArc
 50
180.0
 51
0.0
  0
ARC
  5
15DA
100
AcDbEntity
  8
0
  6
HIDDEN2
100
AcDbCircle
 10
162.030798
 20
470.122154
 30
0.0
 40
21.0
100
AcDbArc
 50
90.0
 51
270.0
  0
LINE
  5
15DB
100
AcDbEntity
  8
0
  6
HIDDEN2
100
AcDbLine
 10
173.042984
 20
450.591526
 30
0.0
 11
129.744768
 21
441.876507
 31
0.0
  0
LINE
  5
15DC
100
AcDbEntity
  8
0
  6
HIDDEN2
100
AcDbLine
 10
162.030798
 20
491.122154
 30
0.0
 11
129.954952
 21
482.407134
 31
0.0
  0
LINE
  5
15DD
100
AcDbEntity
  8
0
  6
HIDDEN2
100
AcDbLine
 10
187.655857
 20
491.122154
 30
0.0
 11
187.655857
 21
449.122154
 31
0.0
  0
MTEXT
  5
15DE
100
AcDbEntity
  8
0
100
AcDbMText
 10
361.369182
 20
655.497694
 30
0.0
 40
20.0
 41
0.0
 71
     1
 72
     5
  1
\fMS UI Gothic|b0|i0|c128|p50;熱管
  0
LINE
  5
15DF
100
AcDbEntity
  8
0
  6
HIDDEN2
100
AcDbLine
 10
296.074336
 20
549.999998
 30
0.0
 11
521.074336
 21
549.999998
 31
0.0
  0
LINE
  5
15E0
100
AcDbEntity
  8
0
  6
HIDDEN2
100
AcDbLine
 10
256.074336
 20
609.999998
 30
0.0
 11
521.074336
 21
609.999998
 31
0.0
  0
LINE
  5
15E1
100
AcDbEntity
  8
0
  6
HIDDEN2
100
AcDbLine
 10
256.074336
 20
679.999998
 30
0.0
 11
521.074336
 21
679.999998
 31
0.0
  0
MTEXT
  5
15E2
100
AcDbEntity
  8
0
100
AcDbMText
 10
349.021289
 20
517.278723
 30
0.0
 40
20.0
 41
0.0
 71
     4
 72
     1
  1
\A1;\fMS UI Gothic|b0|i0|c128|p50;空冷管
  0
LWPOLYLINE
  5
15E3
100
AcDbEntity
  8
0
  6
HIDDEN2
100
AcDbPolyline
 90
        4
 70
     1
 43
0.0
 10
133.435248
 20
674.892338
 10
252.36416
 20
687.856288
 10
252.36416
 20
553.895497
 10
133.435248
 20
553.895497
  0
LINE
  5
15E4
100
AcDbEntity
  8
0
  6
HIDDEN2
100
AcDbLine
 10
256.074336
 20
689.999998
 30
0.0
 11
256.074336
 21
594.999998
 31
0.0
  0
LWPOLYLINE
  5
15E5
100
AcDbEntity
  8
0
  6
HIDDEN2
100
AcDbPolyline
 90
        4
 70
     1
 43
0.0
 10
161.545132
 20
576.127842
 10
233.151995
 20
576.127842
 10
233.151995
 20
546.122569
 10
161.545132
 20
546.122569
  0
LINE
  5
15E6
100
AcDbEntity
  8
0
  6
HIDDEN2
100
AcDbLine
 10
256.074336
 20
594.999998
 30
0.0
 11
296.074336
 21
574.999998
 31
0.0
  0
DIMENSION
  5
15E7
100
AcDbEntity
  8
0
  6
DASHED2
100
AcDbDimension
  2
*D42
 10
258.959871
 20
774.999998
 30
0.0
 11
246.855494
 21
732.499998
 31
0.0
 12
-1480.315031
 22
-42.872572
 32
0.0
  3
STANDARD_WS
100
AcDbAlignedDimension
 13
256.074336
 23
689.999998
 33
0.0
 14
256.074336
 24
774.999998
 34
0.0
 50
90.0
100
AcDbRotatedDimension
  0
DIMENSION
  5
15E8
100
AcDbEntity
  8
0
  6
DASHED2
100
AcDbDimension
  2
*D39
 10
387.406846
 20
799.999998
 30
0.0
 11
375.302469
 21
739.999998
 31
0.0
 12
-1480.315031
 22
-42.872572
 32
0.0
  3
STANDARD_WS
100
AcDbAlignedDimension
 13
388.574336
 23
679.999998
 33
0.0
 14
388.574336
 24
799.999998
 34
0.0
 50
90.0
100
AcDbRotatedDimension
  0
LINE
  5
15E9
100
AcDbEntity
  8
0
  6
HIDDEN2
100
AcDbLine
 10
597.112147
 20
821.208026
 30
0.0
 11
597.112147
 21
613.658647
 31
0.0
  0
LINE
  5
15EA
100
AcDbEntity
  8
0
  6
HIDDEN2
100
AcDbLine
 10
597.112147
 20
613.658647
 30
0.0
 11
521.074336
 21
577.384718
 31
0.0
  0
LINE
  5
15EB
100
AcDbEntity
  8
0
  6
HIDDEN2
100
AcDbLine
 10
551.074336
 20
799.999998
 30
0.0
 11
521.074336
 21
774.999998
 31
0.0
  0
LINE
  5
15EC
100
AcDbEntity
  8
0
100
AcDbLine
 10
636.074336
 20
774.999998
 30
0.0
 11
636.074336
 21
39.999998
 31
0.0
  0
LINE
  5
15ED
100
AcDbEntity
  8
0
  6
HIDDEN2
100
AcDbLine
 10
623.074336
 20
694.999998
 30
0.0
 11
623.074336
 21
518.355485
 31
0.0
  0
DIMENSION
  5
15EE
100
AcDbEntity
  8
0
  6
DASHED2
100
AcDbDimension
  2
*D40
 10
551.074336
 20
982.191242
 30
0.0
 11
596.074336
 21
994.295619
 31
0.0
 12
-1480.315031
 22
-42.872572
 32
0.0
  3
STANDARD_WS
100
AcDbAlignedDimension
 13
641.074336
 23
916.365915
 33
0.0
 14
551.074336
 24
919.830407
 34
0.0
100
AcDbRotatedDimension
  0
LINE
  5
15EF
100
AcDbEntity
  8
0
100
AcDbLine
 10
566.074336
 20
959.999998
 30
0.0
 11
623.074336
 21
959.999998
 31
0.0
  0
LINE
  5
15F0
100
AcDbEntity
  8
0
100
AcDbLine
 10
551.074336
 20
899.999998
 30
0.0
 11
641.074336
 21
899.999998
 31
0.0
  0
LINE
  5
15F1
100
AcDbEntity
  8
0
100
AcDbLine
 10
566.074336
 20
959.999998
 30
0.0
 11
566.074336
 21
899.999998
 31
0.0
  0
LINE
  5
15F2
100
AcDbEntity
  8
0
100
AcDbLine
 10
623.074336
 20
959.999998
 30
0.0
 11
623.074336
 21
899.999998
 31
0.0
  0
ENDBLK
  5
15F4
100
AcDbEntity
  8
0
100
AcDbBlockEnd
  0
BLOCK
  5
1634
100
AcDbEntity
  8
0
100
AcDbBlockBegin
  2
*D45
 70
     1
 10
0.0
 20
0.0
 30
0.0
  3
*D45
  1

  0
LINE
  5
1635
100
AcDbEntity
  8
0
  6
BYBLOCK
 62
     0
100
AcDbLine
 10
1573.493743
 20
817.87257
 30
0.0
 11
1611.126636
 21
817.87257
 31
0.0
  0
LINE
  5
1636
100
AcDbEntity
  8
0
  6
BYBLOCK
 62
     0
100
AcDbLine
 10
1573.493743
 20
747.87257
 30
0.0
 11
1611.126636
 21
747.87257
 31
0.0
  0
LINE
  5
1637
100
AcDbEntity
  8
0
  6
BYBLOCK
 62
     0
100
AcDbLine
 10
1606.917881
 20
809.455062
 30
0.0
 11
1606.917881
 21
756.290079
 31
0.0
  0
SOLID
  5
1638
100
AcDbEntity
  8
0
  6
BYBLOCK
 62
     0
100
AcDbTrace
 10
1605.514963
 20
809.455062
 30
0.0
 11
1608.320799
 21
809.455062
 31
0.0
 12
1606.917881
 22
817.87257
 32
0.0
 13
1606.917881
 23
817.87257
 33
0.0
  0
SOLID
  5
1639
100
AcDbEntity
  8
0
  6
BYBLOCK
 62
     0
100
AcDbTrace
 10
1605.514963
 20
756.290079
 30
0.0
 11
1608.320799
 21
756.290079
 31
0.0
 12
1606.917881
 22
747.87257
 32
0.0
 13
1606.917881
 23
747.87257
 33
0.0
  0
MTEXT
  5
163A
100
AcDbEntity
  8
0
  6
BYBLOCK
 62
     0
100
AcDbMText
 10
1594.813504
 20
782.87257
 30
0.0
 40
20.0
 41
0.0
 71
     5
 72
     1
  1
\A1;70
 11
0.0
 21
1.0
 31
0.0
  0
POINT
  5
163B
100
AcDbEntity
  8
DEFPOINTS
  6
BYBLOCK
 62
     0
100
AcDbPoint
 10
1571.389366
 20
817.87257
 30
0.0
  0
POINT
  5
163C
100
AcDbEntity
  8
DEFPOINTS
  6
BYBLOCK
 62
     0
100
AcDbPoint
 10
1571.389366
 20
747.87257
 30
0.0
  0
POINT
  5
163D
100
AcDbEntity
  8
DEFPOINTS
  6
BYBLOCK
 62
     0
100
AcDbPoint
 10
1606.917881
 20
747.87257
 30
0.0
  0
ENDBLK
  5
163E
100
AcDbEntity
  8
0
100
AcDbBlockEnd
  0
BLOCK
  5
1629
100
AcDbEntity
  8
0
100
AcDbBlockBegin
  2
*D46
 70
     1
 10
0.0
 20
0.0
 30
0.0
  3
*D46
  1

  0
LINE
  5
162A
100
AcDbEntity
  8
0
  6
BYBLOCK
 62
     0
100
AcDbLine
 10
1531.389366
 20
844.976947
 30
0.0
 11
1531.389366
 21
911.265316
 31
0.0
  0
LINE
  5
162B
100
AcDbEntity
  8
0
  6
BYBLOCK
 62
     0
100
AcDbLine
 10
1571.389366
 20
819.976947
 30
0.0
 11
1571.389366
 21
911.265316
 31
0.0
  0
LINE
  5
162C
100
AcDbEntity
  8
0
  6
BYBLOCK
 62
     0
100
AcDbLine
 10
1539.806875
 20
907.056562
 30
0.0
 11
1562.971858
 21
907.056562
 31
0.0
  0
SOLID
  5
162D
100
AcDbEntity
  8
0
  6
BYBLOCK
 62
     0
100
AcDbTrace
 10
1539.806875
 20
908.45948
 30
0.0
 11
1539.806875
 21
905.653644
 31
0.0
 12
1531.389366
 22
907.056562
 32
0.0
 13
1531.389366
 23
907.056562
 33
0.0
  0
SOLID
  5
162E
100
AcDbEntity
  8
0
  6
BYBLOCK
 62
     0
100
AcDbTrace
 10
1562.971858
 20
908.45948
 30
0.0
 11
1562.971858
 21
905.653644
 31
0.0
 12
1571.389366
 22
907.056562
 32
0.0
 13
1571.389366
 23
907.056562
 33
0.0
  0
MTEXT
  5
162F
100
AcDbEntity
  8
0
  6
BYBLOCK
 62
     0
100
AcDbMText
 10
1551.389366
 20
919.160939
 30
0.0
 40
20.0
 41
0.0
 71
     5
 72
     1
  1
\A1;40
  0
POINT
  5
1630
100
AcDbEntity
  8
DEFPOINTS
  6
BYBLOCK
 62
     0
100
AcDbPoint
 10
1531.389366
 20
842.87257
 30
0.0
  0
POINT
  5
1631
100
AcDbEntity
  8
DEFPOINTS
  6
BYBLOCK
 62
     0
100
AcDbPoint
 10
1571.389366
 20
817.87257
 30
0.0
  0
POINT
  5
1632
100
AcDbEntity
  8
DEFPOINTS
  6
BYBLOCK
 62
     0
100
AcDbPoint
 10
1571.389366
 20
907.056562
 30
0.0
  0
ENDBLK
  5
1633
100
AcDbEntity
  8
0
100
AcDbBlockEnd
  0
BLOCK
  5
161F
100
AcDbEntity
  8
0
100
AcDbBlockBegin
  2
*D47
 70
     1
 10
0.0
 20
0.0
 30
0.0
  3
*D47
  1

  0
LINE
  5
1620
100
AcDbEntity
  8
0
  6
BYBLOCK
 62
     0
100
AcDbLine
 10
2001.389366
 20
819.976947
 30
0.0
 11
2001.389366
 21
911.265316
 31
0.0
  0
LINE
  5
1621
100
AcDbEntity
  8
0
  6
BYBLOCK
 62
     0
100
AcDbLine
 10
1579.806875
 20
907.056562
 30
0.0
 11
1992.971858
 21
907.056562
 31
0.0
  0
SOLID
  5
1622
100
AcDbEntity
  8
0
  6
BYBLOCK
 62
     0
100
AcDbTrace
 10
1579.806875
 20
908.45948
 30
0.0
 11
1579.806875
 21
905.653644
 31
0.0
 12
1571.389366
 22
907.056562
 32
0.0
 13
1571.389366
 23
907.056562
 33
0.0
  0
SOLID
  5
1623
100
AcDbEntity
  8
0
  6
BYBLOCK
 62
     0
100
AcDbTrace
 10
1992.971858
 20
908.45948
 30
0.0
 11
1992.971858
 21
905.653644
 31
0.0
 12
2001.389366
 22
907.056562
 32
0.0
 13
2001.389366
 23
907.056562
 33
0.0
  0
MTEXT
  5
1624
100
AcDbEntity
  8
0
  6
BYBLOCK
 62
     0
100
AcDbMText
 10
1786.389366
 20
919.160939
 30
0.0
 40
20.0
 41
0.0
 71
     5
 72
     1
  1
\A1;430
  0
POINT
  5
1625
100
AcDbEntity
  8
DEFPOINTS
  6
BYBLOCK
 62
     0
100
AcDbPoint
 10
1571.389366
 20
817.87257
 30
0.0
  0
POINT
  5
1626
100
AcDbEntity
  8
DEFPOINTS
  6
BYBLOCK
 62
     0
100
AcDbPoint
 10
2001.389366
 20
817.87257
 30
0.0
  0
POINT
  5
1627
100
AcDbEntity
  8
DEFPOINTS
  6
BYBLOCK
 62
     0
100
AcDbPoint
 10
2001.389366
 20
907.056562
 30
0.0
  0
ENDBLK
  5
1628
100
AcDbEntity
  8
0
100
AcDbBlockEnd
  0
ENDSEC
  0
SECTION
  2
ENTITIES
  0
LINE
  5
3C
100
AcDbEntity
  8
0
100
AcDbLine
 10
255.892646
 20
1842.293319
 30
0.0
 11
255.892646
 21
1252.293319
 31
0.0
  0
LINE
  5
3D
100
AcDbEntity
  8
0
100
AcDbLine
 10
255.892646
 20
842.87257
 30
0.0
 11
635.892646
 21
842.87257
 31
0.0
  0
LINE
  5
3E
100
AcDbEntity
  8
0
100
AcDbLine
 10
255.892646
 20
942.87257
 30
0.0
 11
635.892646
 21
942.87257
 31
0.0
  0
LINE
  5
40
100
AcDbEntity
  8
0
100
AcDbLine
 10
1531.389366
 20
842.87257
 30
0.0
 11
1531.389366
 21
817.87257
 31
0.0
  0
LINE
  5
41
100
AcDbEntity
  8
0
100
AcDbLine
 10
2121.389366
 20
942.87257
 30
0.0
 11
2121.389366
 21
817.87257
 31
0.0
  0
LINE
  5
42
100
AcDbEntity
  8
0
100
AcDbLine
 10
255.892646
 20
1252.293319
 30
0.0
 11
635.892646
 21
1252.293319
 31
0.0
  0
LINE
  5
43
100
AcDbEntity
  8
0
100
AcDbLine
 10
255.892646
 20
1842.293319
 30
0.0
 11
635.892646
 21
1842.293319
 31
0.0
  0
LINE
  5
45
100
AcDbEntity
  8
0
100
AcDbLine
 10
255.892646
 20
842.87257
 30
0.0
 11
255.892646
 21
812.87257
 31
0.0
  0
LINE
  5
46
100
AcDbEntity
  8
0
100
AcDbLine
 10
2031.389366
 20
942.87257
 30
0.0
 11
2121.389366
 21
942.87257
 31
0.0
  0
LINE
  5
47
100
AcDbEntity
  8
0
100
AcDbLine
 10
1531.389366
 20
842.87257
 30
0.0
 11
2121.389366
 21
842.87257
 31
0.0
  0
LINE
  5
4B
100
AcDbEntity
  8
0
100
AcDbLine
 10
255.892646
 20
812.87257
 30
0.0
 11
635.892646
 21
812.87257
 31
0.0
  0
LINE
  5
4C
100
AcDbEntity
  8
0
100
AcDbLine
 10
1531.389366
 20
817.87257
 30
0.0
 11
2121.389366
 21
817.87257
 31
0.0
  0
LINE
  5
4D
100
AcDbEntity
  8
0
100
AcDbLine
 10
305.892646
 20
812.87257
 30
0.0
 11
305.892646
 21
82.87257
 31
0.0
  0
LINE
  5
4E
100
AcDbEntity
  8
0
100
AcDbLine
 10
585.892646
 20
707.87257
 30
0.0
 11
585.892646
 21
587.87257
 31
0.0
  0
LINE
  5
4F
100
AcDbEntity
  8
0
100
AcDbLine
 10
255.892646
 20
942.87257
 30
0.0
 11
255.892646
 21
842.87257
 31
0.0
  0
LINE
  5
9F
100
AcDbEntity
  8
0
100
AcDbLine
 10
255.892646
 20
1752.293319
 30
0.0
 11
635.892646
 21
1752.293319
 31
0.0
  0
LINE
  5
B9
100
AcDbEntity
  8
0
100
AcDbLine
 10
1497.641257
 20
42.87257
 30
0.0
 11
2211.383295
 21
42.87257
 31
0.0
  0
LINE
  5
BA
100
AcDbEntity
  8
0
100
AcDbLine
 10
1541.389366
 20
817.87257
 30
0.0
 11
1541.389366
 21
82.87257
 31
0.0
  0
LINE
  5
10C
100
AcDbEntity
  8
0
100
AcDbLine
 10
2031.389366
 20
942.87257
 30
0.0
 11
2031.389366
 21
842.87257
 31
0.0
  0
LINE
  5
15D
100
AcDbEntity
  8
0
100
AcDbLine
 10
2116.389366
 20
817.87257
 30
0.0
 11
2116.389366
 21
82.87257
 31
0.0
  0
ARC
  5
160
100
AcDbEntity
  8
0
  6
HIDDEN2
100
AcDbCircle
 10
1642.345828
 20
512.994726
 30
0.0
 40
21.0
100
AcDbArc
 50
90.0
 51
270.0
  0
LINE
  5
161
100
AcDbEntity
  8
0
  6
HIDDEN2
100
AcDbLine
 10
1642.345828
 20
533.994726
 30
0.0
 11
1776.389366
 21
533.994726
 31
0.0
  0
LINE
  5
163
100
AcDbEntity
  8
0
  6
HIDDEN2
100
AcDbLine
 10
1642.345828
 20
491.994726
 30
0.0
 11
1776.389366
 21
491.994726
 31
0.0
  0
LINE
  5
164
100
AcDbEntity
  8
0
  6
HIDDEN2
100
AcDbLine
 10
1642.345828
 20
533.994726
 30
0.0
 11
1610.269983
 21
525.279706
 31
0.0
  0
LINE
  5
166
100
AcDbEntity
  8
0
  6
HIDDEN2
100
AcDbLine
 10
1653.358015
 20
493.464098
 30
0.0
 11
1610.059798
 21
484.749079
 31
0.0
  0
LINE
  5
167
100
AcDbEntity
  8
0
  6
HIDDEN2
100
AcDbLine
 10
1667.970887
 20
533.994726
 30
0.0
 11
1667.970887
 21
491.994726
 31
0.0
  0
INSERT
  5
19A
100
AcDbEntity
  8
0
100
AcDbBlockReference
  2
A$C3D4A0DE5
 10
1646.195408
 20
275.98591
 30
0.0
  0
INSERT
  5
19B
100
AcDbEntity
  8
0
100
AcDbBlockReference
  2
A$C3D4A0DE5
 10
1480.315032
 20
480.080144
 30
0.0
  0
LINE
  5
1C8
100
AcDbEntity
  8
0
100
AcDbLine
 10
1462.546431
 20
1805.25039
 30
0.0
 11
2163.263294
 21
1805.25039
 31
0.0
  0
LINE
  5
1CB
100
AcDbEntity
  8
0
100
AcDbLine
 10
1462.546431
 20
1755.25039
 30
0.0
 11
2163.263294
 21
1755.25039
 31
0.0
  0
LINE
  5
1CC
100
AcDbEntity
  8
0
100
AcDbLine
 10
1462.546431
 20
1705.25039
 30
0.0
 11
2163.263294
 21
1705.25039
 31
0.0
  0
LINE
  5
1CD
100
AcDbEntity
  8
0
100
AcDbLine
 10
1462.546431
 20
1655.25039
 30
0.0
 11
2163.263294
 21
1655.25039
 31
0.0
  0
LINE
  5
1CE
100
AcDbEntity
  8
0
100
AcDbLine
 10
1462.546431
 20
1605.25039
 30
0.0
 11
2163.263294
 21
1605.25039
 31
0.0
  0
LINE
  5
1CF
100
AcDbEntity
  8
0
100
AcDbLine
 10
1462.546431
 20
1555.25039
 30
0.0
 11
2163.263294
 21
1555.25039
 31
0.0
  0
LINE
  5
1D0
100
AcDbEntity
  8
0
100
AcDbLine
 10
1462.546431
 20
1505.25039
 30
0.0
 11
2163.263294
 21
1505.25039
 31
0.0
  0
LINE
  5
1D1
100
AcDbEntity
  8
0
100
AcDbLine
 10
1462.546431
 20
1455.25039
 30
0.0
 11
2163.263294
 21
1455.25039
 31
0.0
  0
LINE
  5
1D2
100
AcDbEntity
  8
0
100
AcDbLine
 10
1462.546431
 20
1405.25039
 30
0.0
 11
2163.263294
 21
1405.25039
 31
0.0
  0
LINE
  5
1D4
100
AcDbEntity
  8
0
100
AcDbLine
 10
1462.546431
 20
1805.25039
 30
0.0
 11
1462.546431
 21
1405.25039
 31
0.0
  0
DIMENSION
  5
7E9
100
AcDbEntity
  8
0
  6
DASHED2
100
AcDbDimension
  2
*D3
 10
1169.638328
 20
42.87257
 30
0.0
 11
1157.533951
 21
492.87257
 31
0.0
 12
287.813328
 22
0.0
 32
0.0
 70
    32
  3
STANDARD_WS
100
AcDbAlignedDimension
 13
989.965086
 23
942.87257
 33
0.0
 14
1091.569896
 24
42.87257
 34
0.0
 50
90.0
100
AcDbRotatedDimension
  0
MTEXT
  5
884
100
AcDbEntity
  8
0
100
AcDbMText
 10
1829.33632
 20
560.151295
 30
0.0
 40
20.0
 41
0.0
 71
     4
 72
     1
  1
\A1;\fMS UI Gothic|b0|i0|c128|p50;空冷管
  0
MTEXT
  5
8A5
100
AcDbEntity
  8
0
100
AcDbMText
 10
1477.374699
 20
1700.553212
 30
0.0
 40
30.0
 41
0.0
 71
     1
 72
     5
  1
\fMS UI Gothic|b0|i0|c128|p50;油槽寸法
  0
MTEXT
  5
8A7
100
AcDbEntity
  8
0
100
AcDbMText
 10
1474.580573
 20
1601.904346
 30
0.0
 40
30.0
 41
0.0
 71
     1
 72
     5
  1
\fMS UI Gothic|b0|i0|c128|p50;制御範囲
  0
MTEXT
  5
8A8
100
AcDbEntity
  8
0
100
AcDbMText
 10
1474.580573
 20
1546.99601
 30
0.0
 40
30.0
 41
0.0
 71
     1
 72
     5
  1
\fMS UI Gothic|b0|i0|c128|p50;制御方法
  0
MTEXT
  5
8AD
100
AcDbEntity
  8
0
100
AcDbMText
 10
1479.237449
 20
1802.924683
 30
0.0
 40
30.0
 41
1.533
 71
     1
 72
     5
  1
\fMS UI Gothic|b0|i0|c128|p50;型　　　式
  0
MTEXT
  5
8AE
100
AcDbEntity
  8
0
100
AcDbMText
 10
1479.237449
 20
1748.016353
 30
0.0
 40
30.0
 41
0.0
 71
     1
 72
     5
  1
\fMS UI Gothic|b0|i0|c128|p50;寸　　　法
  0
MTEXT
  5
8AF
100
AcDbEntity
  8
0
100
AcDbMText
 10
1477.374699
 20
1649.36748
 30
0.0
 40
30.0
 41
0.0
 71
     1
 72
     5
  1
\fMS UI Gothic|b0|i0|c128|p50;油　　　量
  0
MTEXT
  5
8B0
100
AcDbEntity
  8
0
100
AcDbMText
 10
1474.580573
 20
1449.277789
 30
0.0
 40
30.0
 41
1.533
 71
     1
 72
     5
  1
\fMS UI Gothic|b0|i0|c128|p50;重　　　量
  0
LINE
  5
8B2
100
AcDbEntity
  8
0
100
AcDbLine
 10
1662.546431
 20
1805.25039
 30
0.0
 11
1662.546431
 21
1405.25039
 31
0.0
  0
MTEXT
  5
8B4
100
AcDbEntity
  8
0
100
AcDbMText
 10
1689.207514
 20
1797.340787
 30
0.0
 40
30.0
 41
1.6564
 71
     1
 72
     5
  1
\fMS UI Gothic|b0|i0|c128|p50;ＳＴ－６０型
  0
MTEXT
  5
8B5
100
AcDbEntity
  8
0
100
AcDbMText
 10
1689.207514
 20
1742.432451
 30
0.0
 40
30.0
 41
0.0
 71
     1
 72
     5
  1
\fMS UI Gothic|b0|i0|c128|p50;W７２０×D５９０×H８００
  0
MTEXT
  5
8B6
100
AcDbEntity
  8
0
100
AcDbMText
 10
1687.551129
 20
1696.830615
 30
0.0
 40
30.0
 41
1.6564
 71
     1
 72
     5
  1
\fMS UI Gothic|b0|i0|c128|p50;W６４０×D４３０
  0
MTEXT
  5
8B7
100
AcDbEntity
  8
0
100
AcDbMText
 10
1687.551129
 20
1644.71423
 30
0.0
 40
30.0
 41
0.0
 71
     1
 72
     5
  1
\fMS UI Gothic|b0|i0|c128|p50;４０L
  0
MTEXT
  5
8B8
100
AcDbEntity
  8
0
100
AcDbMText
 10
1687.551129
 20
1596.320443
 30
0.0
 40
30.0
 41
1.6564
 71
     1
 72
     5
  1
\fMS UI Gothic|b0|i0|c128|p50;
  0
MTEXT
  5
8B9
100
AcDbEntity
  8
0
100
AcDbMText
 10
1685.894752
 20
1549.787961
 30
0.0
 40
30.0
 41
265.020818
 71
     1
 72
     5
  1
\fMS UI Gothic|b0|i0|c128|p50;比例制御方式
  0
MTEXT
  5
8BB
100
AcDbEntity
  8
0
100
AcDbMText
 10
1685.894752
 20
1445.555191
 30
0.0
 40
30.0
 41
0.0
 71
     1
 72
     5
  1
\fMS UI Gothic|b0|i0|c128|p50;５５Kg
  0
LINE
  5
8BC
100
AcDbEntity
  8
0
100
AcDbLine
 10
2163.263294
 20
1805.25039
 30
0.0
 11
2163.263294
 21
1405.25039
 31
0.0
  0
LWPOLYLINE
  5
8BD
100
AcDbEntity
  8
0
100
AcDbPolyline
 90
        4
 70
     1
 43
0.0
 10
-473.980063
 20
2100.803126
 10
2716.199534
 20
2100.803126
 10
2716.199534
 20
-271.990411
 10
-473.980063
 20
-271.990411
  0
LWPOLYLINE
  5
8BE
100
AcDbEntity
  8
0
100
AcDbPolyline
 90
        4
 70
     1
 43
0.0
 10
1160.076338
 20
-124.782383
 10
2703.656705
 20
-124.782383
 10
2703.656705
 20
-256.146895
 10
1160.076338
 20
-256.146895
  0
MTEXT
  5
8C0
100
AcDbEntity
  8
0
100
AcDbMText
 10
1196.564245
 20
-159.840523
 30
0.0
 40
50.0
 41
0.0
 71
     1
 72
     5
  1
\fMS UI Gothic|b0|i0|c128|p50;ウォーターフライヤー株式会社
  0
LINE
  5
8C1
100
AcDbEntity
  8
0
100
AcDbLine
 10
2065.499509
 20
-124.800801
 30
0.0
 11
2065.499509
 21
-256.126581
 31
0.0
  0
LINE
  5
8C5
100
AcDbEntity
  8
0
100
AcDbLine
 10
2145.499509
 20
-124.800801
 30
0.0
 11
2145.499509
 21
-256.126581
 31
0.0
  0
MTEXT
  5
8C6
100
AcDbEntity
  8
0
100
AcDbMText
 10
2089.259136
 20
-161.867547
 30
0.0
 40
20.0
 41
12.192542
 71
     1
 72
     5
  1
\fMS UI Gothic|b0|i0|c128|p50;型式
  0
MTEXT
  5
8C7
100
AcDbEntity
  8
0
100
AcDbMText
 10
2193.570512
 20
-163.399296
 30
0.0
 40
50.0
 41
458.181674
 71
     1
 72
     5
  1
\fMS UI Gothic|b0|i0|c128|p50;ＳＴ－６０型
  0
DIMENSION
  5
963
100
AcDbEntity
  8
0
  6
DASHED2
100
AcDbDimension
  2
*D4
 10
1103.91688
 20
1252.293319
 30
0.0
 11
1103.91688
 21
1630.961067
 31
0.0
 12
339.778194
 22
0.0
 32
0.0
 70
   160
  3
STANDARD_WS
100
AcDbAlignedDimension
 13
988.217097
 23
1842.293319
 33
0.0
 14
997.008397
 24
1252.293319
 34
0.0
 50
90.0
100
AcDbRotatedDimension
  0
LINE
  5
964
100
AcDbEntity
  8
0
100
AcDbLine
 10
295.892646
 20
1722.293319
 30
0.0
 11
635.892646
 21
1722.293319
 31
0.0
  0
LINE
  5
976
100
AcDbEntity
  8
0
100
AcDbLine
 10
340.892646
 20
1825.293319
 30
0.0
 11
550.892646
 21
1825.293319
 31
0.0
  0
LINE
  5
977
100
AcDbEntity
  8
0
100
AcDbLine
 10
340.892646
 20
1768.293319
 30
0.0
 11
550.892646
 21
1768.293319
 31
0.0
  0
LINE
  5
978
100
AcDbEntity
  8
0
100
AcDbLine
 10
340.892646
 20
1825.293319
 30
0.0
 11
340.892646
 21
1768.293319
 31
0.0
  0
LINE
  5
979
100
AcDbEntity
  8
0
100
AcDbLine
 10
550.892646
 20
1825.293319
 30
0.0
 11
550.892646
 21
1768.293319
 31
0.0
  0
LINE
  5
97C
100
AcDbEntity
  8
0
100
AcDbLine
 10
350.892646
 20
1815.293319
 30
0.0
 11
540.892646
 21
1815.293319
 31
0.0
  0
LINE
  5
97D
100
AcDbEntity
  8
0
100
AcDbLine
 10
350.892646
 20
1778.293319
 30
0.0
 11
540.892646
 21
1778.293319
 31
0.0
  0
LINE
  5
97E
100
AcDbEntity
  8
0
100
AcDbLine
 10
350.892646
 20
1815.293319
 30
0.0
 11
350.892646
 21
1778.293319
 31
0.0
  0
LINE
  5
97F
100
AcDbEntity
  8
0
100
AcDbLine
 10
540.892646
 20
1815.293319
 30
0.0
 11
540.892646
 21
1778.293319
 31
0.0
  0
CIRCLE
  5
9A6
100
AcDbEntity
  8
0
100
AcDbCircle
 10
280.892646
 20
62.87257
 30
0.0
 40
20.0
  0
LINE
  5
9A7
100
AcDbEntity
  8
0
100
AcDbLine
 10
2116.389366
 20
82.87257
 30
0.0
 11
1541.389366
 21
82.87257
 31
0.0
  0
LINE
  5
9AC
100
AcDbEntity
  8
0
100
AcDbLine
 10
305.892646
 20
82.87257
 30
0.0
 11
260.892646
 21
82.87257
 31
0.0
  0
CIRCLE
  5
9B1
100
AcDbEntity
  8
0
100
AcDbCircle
 10
2098.389366
 20
62.87257
 30
0.0
 40
20.0
  0
CIRCLE
  5
9B2
100
AcDbEntity
  8
0
100
AcDbCircle
 10
1561.389366
 20
62.87257
 30
0.0
 40
20.0
  0
LINE
  5
9B6
100
AcDbEntity
  8
0
100
AcDbLine
 10
230.892646
 20
42.87257
 30
0.0
 11
660.892646
 21
42.87257
 31
0.0
  0
LINE
  5
9BC
100
AcDbEntity
  8
0
100
AcDbLine
 10
260.892646
 20
812.87257
 30
0.0
 11
260.892646
 21
82.87257
 31
0.0
  0
LINE
  5
9C1
100
AcDbEntity
  8
0
100
AcDbLine
 10
385.892646
 20
672.675558
 30
0.0
 11
505.892646
 21
672.675558
 31
0.0
  0
LINE
  5
9C2
100
AcDbEntity
  8
0
100
AcDbLine
 10
385.892646
 20
682.675558
 30
0.0
 11
505.892646
 21
682.675558
 31
0.0
  0
CIRCLE
  5
9C4
100
AcDbEntity
  8
0
100
AcDbCircle
 10
445.892646
 20
644.044346
 30
0.0
 40
15.0
  0
ARC
  5
9C5
100
AcDbEntity
  8
0
100
AcDbCircle
 10
385.892646
 20
677.675558
 30
0.0
 40
5.0
100
AcDbArc
 50
90.0
 51
270.0
  0
ARC
  5
9C6
100
AcDbEntity
  8
0
100
AcDbCircle
 10
505.892646
 20
677.675558
 30
0.0
 40
5.0
100
AcDbArc
 50
270.0
 51
90.0
  0
DIMENSION
  5
9E1
100
AcDbEntity
  8
0
  6
DASHED2
100
AcDbDimension
  2
*D7
 10
1089.208208
 20
42.87257
 30
0.0
 11
1089.208208
 21
590.285126
 31
0.0
 12
287.813328
 22
0.0
 32
0.0
 70
   160
  3
STANDARD_WS
100
AcDbAlignedDimension
 13
990.951307
 23
842.87257
 33
0.0
 14
988.493618
 24
42.87257
 34
0.0
 50
90.0
100
AcDbRotatedDimension
  0
DIMENSION
  5
9EE
100
AcDbEntity
  8
0
  6
DASHED2
100
AcDbDimension
  2
*D8
 10
1088.606279
 20
942.87257
 30
0.0
 11
1076.501902
 21
892.87257
 31
0.0
 12
287.813328
 22
0.0
 32
0.0
 70
    32
  3
STANDARD_WS
100
AcDbAlignedDimension
 13
990.951307
 23
842.87257
 33
0.0
 14
993.362302
 24
942.87257
 34
0.0
 50
90.0
100
AcDbRotatedDimension
  0
LINE
  5
9F4
100
AcDbEntity
  8
0
  6
HIDDEN2
100
AcDbLine
 10
1736.389366
 20
732.87257
 30
0.0
 11
1736.389366
 21
637.87257
 31
0.0
  0
LINE
  5
9FC
100
AcDbEntity
  8
0
  6
HIDDEN2
100
AcDbLine
 10
2031.389366
 20
842.87257
 30
0.0
 11
2001.389366
 21
817.87257
 31
0.0
  0
LINE
  5
9FD
100
AcDbEntity
  8
0
  6
HIDDEN2
100
AcDbLine
 10
2001.389366
 20
817.87257
 30
0.0
 11
2001.389366
 21
298.561276
 31
0.0
  0
LINE
  5
A0D
100
AcDbEntity
  8
0
  6
HIDDEN2
100
AcDbLine
 10
1736.389366
 20
722.87257
 30
0.0
 11
2001.389366
 21
722.87257
 31
0.0
  0
LINE
  5
A0E
100
AcDbEntity
  8
0
  6
HIDDEN2
100
AcDbLine
 10
1736.389366
 20
652.87257
 30
0.0
 11
2001.389366
 21
652.87257
 31
0.0
  0
LINE
  5
A0F
100
AcDbEntity
  8
0
  6
HIDDEN2
100
AcDbLine
 10
1776.389366
 20
592.87257
 30
0.0
 11
2001.389366
 21
592.87257
 31
0.0
  0
LINE
  5
A10
100
AcDbEntity
  8
0
  6
HIDDEN2
100
AcDbLine
 10
1776.389366
 20
532.87257
 30
0.0
 11
2001.389366
 21
532.87257
 31
0.0
  0
LINE
  5
A13
100
AcDbEntity
  8
0
  6
HIDDEN2
100
AcDbLine
 10
1736.389366
 20
637.87257
 30
0.0
 11
1776.389366
 21
617.87257
 31
0.0
  0
LINE
  5
A14
100
AcDbEntity
  8
0
  6
HIDDEN2
100
AcDbLine
 10
1776.389366
 20
617.87257
 30
0.0
 11
1776.389366
 21
282.87257
 31
0.0
  0
LINE
  5
A16
100
AcDbEntity
  8
0
100
AcDbLine
 10
310.892646
 20
282.87257
 30
0.0
 11
920.892646
 21
282.87257
 31
0.0
  0
DIMENSION
  5
A23
100
AcDbEntity
  8
0
  6
DASHED2
100
AcDbDimension
  2
*D9
 10
1050.232022
 20
1752.293319
 30
0.0
 11
1038.127645
 21
1797.293319
 31
0.0
 12
289.778194
 22
0.0
 32
0.0
 70
    32
  3
STANDARD_WS
100
AcDbAlignedDimension
 13
988.217097
 23
1842.293319
 33
0.0
 14
985.670691
 24
1752.293319
 34
0.0
 50
90.0
100
AcDbRotatedDimension
  0
DIMENSION
  5
A55
100
AcDbEntity
  8
0
  6
DASHED2
100
AcDbDimension
  2
*D10
 10
1049.011349
 20
1252.293319
 30
0.0
 11
1049.011349
 21
1581.773796
 31
0.0
 12
339.778194
 22
0.0
 32
0.0
 70
   160
  3
STANDARD_WS
100
AcDbAlignedDimension
 13
985.670691
 23
1752.293319
 33
0.0
 14
997.008397
 24
1252.293319
 34
0.0
 50
90.0
100
AcDbRotatedDimension
  0
DIMENSION
  5
A87
100
AcDbEntity
  8
0
  6
DASHED2
100
AcDbDimension
  2
*D11
 10
597.802868
 20
1768.293319
 30
0.0
 11
585.698491
 21
1796.793319
 31
0.0
 70
    32
  3
STANDARD_WS
100
AcDbAlignedDimension
 13
560.933266
 23
1825.293319
 33
0.0
 14
563.479671
 24
1768.293319
 34
0.0
 50
90.0
100
AcDbRotatedDimension
  0
LINE
  5
A88
100
AcDbEntity
  8
0
100
AcDbLine
 10
340.892646
 20
1002.87257
 30
0.0
 11
550.892646
 21
1002.87257
 31
0.0
  0
LINE
  5
A89
100
AcDbEntity
  8
0
100
AcDbLine
 10
550.892646
 20
1002.87257
 30
0.0
 11
550.892646
 21
942.87257
 31
0.0
  0
LINE
  5
A8A
100
AcDbEntity
  8
0
100
AcDbLine
 10
340.892646
 20
1002.87257
 30
0.0
 11
340.892646
 21
942.87257
 31
0.0
  0
LINE
  5
AA5
100
AcDbEntity
  8
0
  6
HIDDEN2
100
AcDbLine
 10
1776.389366
 20
282.87257
 30
0.0
 11
2001.389366
 21
298.561276
 31
0.0
  0
LINE
  5
AAA
100
AcDbEntity
  8
0
100
AcDbLine
 10
310.892646
 20
507.87257
 30
0.0
 11
310.892646
 21
460.900646
 31
0.0
  0
LINE
  5
AAB
100
AcDbEntity
  8
0
100
AcDbLine
 10
2046.389366
 20
1002.87257
 30
0.0
 11
2103.389366
 21
1002.87257
 31
0.0
  0
LINE
  5
AAC
100
AcDbEntity
  8
0
100
AcDbLine
 10
2046.389366
 20
1002.87257
 30
0.0
 11
2046.389366
 21
942.87257
 31
0.0
  0
LINE
  5
AAD
100
AcDbEntity
  8
0
100
AcDbLine
 10
2103.389366
 20
1002.87257
 30
0.0
 11
2103.389366
 21
942.87257
 31
0.0
  0
LINE
  5
AAE
100
AcDbEntity
  8
0
  6
HIDDEN2
100
AcDbLine
 10
2001.389366
 20
737.87257
 30
0.0
 11
2103.389366
 21
737.87257
 31
0.0
  0
LINE
  5
AB0
100
AcDbEntity
  8
0
  6
HIDDEN2
100
AcDbLine
 10
2001.389366
 20
517.87257
 30
0.0
 11
2103.389366
 21
561.228057
 31
0.0
  0
LINE
  5
AB4
100
AcDbEntity
  8
0
  6
HIDDEN2
100
AcDbLine
 10
2103.389366
 20
737.87257
 30
0.0
 11
2103.389366
 21
561.228057
 31
0.0
  0
LINE
  5
AB5
100
AcDbEntity
  8
0
  6
HIDDEN2
100
AcDbLine
 10
2049.389366
 20
942.87257
 30
0.0
 11
2049.389366
 21
737.87257
 31
0.0
  0
LINE
  5
AB6
100
AcDbEntity
  8
0
  6
HIDDEN2
100
AcDbLine
 10
2100.389366
 20
939.87257
 30
0.0
 11
2100.389366
 21
737.87257
 31
0.0
  0
LINE
  5
AB7
100
AcDbEntity
  8
0
  6
HIDDEN2
100
AcDbLine
 10
2077.427177
 20
864.080598
 30
0.0
 11
2077.427177
 21
656.531219
 31
0.0
  0
LINE
  5
AB8
100
AcDbEntity
  8
0
  6
HIDDEN2
100
AcDbLine
 10
2077.427177
 20
656.531219
 30
0.0
 11
2001.389366
 21
620.25729
 31
0.0
  0
LWPOLYLINE
  5
C29
100
AcDbEntity
  8
0
  6
HIDDEN2
100
AcDbPolyline
 90
        4
 70
     1
 43
0.0
 10
1613.750278
 20
717.76491
 10
1732.679191
 20
730.72886
 10
1732.679191
 20
596.768069
 10
1613.750278
 20
596.768069
  0
LWPOLYLINE
  5
C2A
100
AcDbEntity
  8
0
  6
HIDDEN2
100
AcDbPolyline
 90
        4
 70
     1
 43
0.0
 10
1641.860163
 20
619.000414
 10
1713.467026
 20
619.000414
 10
1713.467026
 20
588.995141
 10
1641.860163
 20
588.995141
  0
LWPOLYLINE
  5
C2E
100
AcDbEntity
  8
0
100
AcDbPolyline
 90
        4
 70
     1
 43
0.0
 10
380.556373
 20
461.292511
 10
424.710966
 20
461.292511
 10
424.710966
 20
435.674354
 10
380.556373
 20
435.674354
  0
CIRCLE
  5
C2F
100
AcDbEntity
  8
0
100
AcDbCircle
 10
402.510868
 20
448.48343
 30
0.0
 40
11.385849
  0
LINE
  5
C47
100
AcDbEntity
  8
0
100
AcDbLine
 10
380.556373
 20
456.595584
 30
0.0
 11
394.521469
 21
456.595584
 31
0.0
  0
LINE
  5
C48
100
AcDbEntity
  8
0
100
AcDbLine
 10
380.556373
 20
440.38906
 30
0.0
 11
394.503451
 21
440.38906
 31
0.0
  0
LINE
  5
C49
100
AcDbEntity
  8
0
100
AcDbLine
 10
307.414187
 20
458.595584
 30
0.0
 11
327.358062
 21
458.595584
 31
0.0
  0
LINE
  5
C4A
100
AcDbEntity
  8
0
100
AcDbLine
 10
307.414187
 20
438.38906
 30
0.0
 11
327.358062
 21
438.38906
 31
0.0
  0
LWPOLYLINE
  5
C4B
100
AcDbEntity
  8
0
100
AcDbPolyline
 90
        4
 70
     1
 43
0.0
 10
399.29875
 20
458.917359
 10
405.538968
 20
458.917359
 10
405.538968
 20
438.292708
 10
399.29875
 20
438.292708
  0
LINE
  5
C4C
100
AcDbEntity
  8
0
100
AcDbLine
 10
410.500267
 20
456.595584
 30
0.0
 11
424.710966
 21
456.595584
 31
0.0
  0
LINE
  5
C4D
100
AcDbEntity
  8
0
100
AcDbLine
 10
410.518285
 20
440.38906
 30
0.0
 11
424.710966
 21
440.38906
 31
0.0
  0
LINE
  5
C52
100
AcDbEntity
  8
0
100
AcDbLine
 10
368.358071
 20
458.595584
 30
0.0
 11
380.556373
 21
458.595584
 31
0.0
  0
LINE
  5
C57
100
AcDbEntity
  8
0
100
AcDbLine
 10
368.358071
 20
438.38906
 30
0.0
 11
380.556373
 21
438.38906
 31
0.0
  0
LINE
  5
C58
100
AcDbEntity
  8
0
100
AcDbLine
 10
310.892646
 20
435.900646
 30
0.0
 11
310.892646
 21
282.87257
 31
0.0
  0
LWPOLYLINE
  5
C70
100
AcDbEntity
  8
0
100
AcDbPolyline
 90
        6
 70
     0
 43
0.0
 10
511.418573
 20
488.745729
 10
511.418573
 20
475.225659
 10
499.356706
 20
475.225659
 10
499.356706
 20
502.774147
 10
511.418573
 20
502.774147
 10
511.418573
 20
493.745729
  0
LINE
  5
C72
100
AcDbEntity
  8
0
100
AcDbLine
 10
504.640425
 20
493.745729
 30
0.0
 11
532.931776
 21
493.745729
 31
0.0
  0
LINE
  5
C73
100
AcDbEntity
  8
0
100
AcDbLine
 10
504.640425
 20
488.745729
 30
0.0
 11
532.931776
 21
488.745729
 31
0.0
  0
LINE
  5
C74
100
AcDbEntity
  8
0
100
AcDbLine
 10
504.640425
 20
493.745729
 30
0.0
 11
504.640425
 21
488.745729
 31
0.0
  0
ARC
  5
C75
100
AcDbEntity
  8
0
100
AcDbCircle
 10
532.931776
 20
491.245729
 30
0.0
 40
2.5
100
AcDbArc
 50
270.0
 51
90.0
  0
LWPOLYLINE
  5
C76
100
AcDbEntity
  8
0
100
AcDbPolyline
 90
        4
 70
     1
 43
0.0
 10
500.650497
 20
505.411044
 10
510.471773
 20
505.411044
 10
510.471773
 20
503.055774
 10
500.650497
 20
503.055774
  0
LINE
  5
C77
100
AcDbEntity
  8
0
100
AcDbLine
 10
503.989731
 20
505.411044
 30
0.0
 11
503.989731
 21
503.055774
 31
0.0
  0
LINE
  5
C78
100
AcDbEntity
  8
0
100
AcDbLine
 10
507.721816
 20
505.21477
 30
0.0
 11
507.721816
 21
502.8595
 31
0.0
  0
LINE
  5
C79
100
AcDbEntity
  8
0
100
AcDbLine
 10
502.221901
 20
507.57004
 30
0.0
 11
502.221901
 21
505.411044
 31
0.0
  0
LINE
  5
C7A
100
AcDbEntity
  8
0
100
AcDbLine
 10
508.703943
 20
507.57004
 30
0.0
 11
508.703943
 21
505.607312
 31
0.0
  0
MTEXT
  5
C7C
100
AcDbEntity
  8
0
100
AcDbMText
 10
1681.572659
 20
1599.26562
 30
0.0
 40
30.0
 41
0.0
 71
     1
 72
     5
  1
\fMS UI Gothic|b0|i0|c128|p50;１６０\U+2103～２２０\U+2103
  0
LEADER
  5
C7D
100
AcDbEntity
  8
0
100
AcDbLeader
  3
STANDARD_WS
 73
     0
 74
     0
 40
24.659091
 41
147.613636
 76
     2
 10
868.458774
 20
447.139446
 30
0.0
 10
975.22209
 20
469.958218
 30
0.0
 77
   256
340
C7E
  0
MTEXT
  5
C7E
102
{ACAD_REACTORS
330
C7D
102
}
100
AcDbEntity
  8
0
100
AcDbMText
 10
977.326467
 20
484.392141
 30
0.0
 40
20.0
 41
0.0
 71
     4
 72
     1
  1
\A1;\fMS UI Gothic|b0|i0|c128|p50;サーモスタット
  0
LEADER
  5
C8A
100
AcDbEntity
  8
0
100
AcDbLeader
  3
STANDARD_WS
 73
     0
 74
     0
 75
     1
 40
26.477273
 41
172.613636
 76
     3
 10
911.942863
 20
342.154577
 30
0.0
 10
966.804582
 20
299.718694
 30
0.0
 10
975.22209
 20
299.718694
 30
0.0
 77
   256
340
C8B
  0
MTEXT
  5
C8B
102
{ACAD_REACTORS
330
C8A
102
}
100
AcDbEntity
  8
0
100
AcDbMText
 10
977.326467
 20
315.061707
 30
0.0
 40
20.0
 41
0.0
 71
     4
 72
     1
  1
\A1;\fMS UI Gothic|b0|i0|c128|p50;接続口径１５A
  0
LEADER
  5
C98
100
AcDbEntity
  8
0
100
AcDbLeader
  3
STANDARD_WS
 73
     0
 74
     0
 40
27.613636
 41
171.590909
 76
     2
 10
911.361116
 20
362.369676
 30
0.0
 10
975.22209
 20
371.782418
 30
0.0
 77
   256
340
C99
  0
MTEXT
  5
C99
102
{ACAD_REACTORS
330
C98
102
}
100
AcDbEntity
  8
0
100
AcDbMText
 10
977.326467
 20
387.693613
 30
0.0
 40
20.0
 41
0.0
 71
     4
 72
     1
  1
\A1;\fMS UI Gothic|b0|i0|c128|p50;過熱防止装置
  0
LEADER
  5
C9A
100
AcDbEntity
  8
0
100
AcDbLeader
  3
STANDARD_WS
 73
     0
 74
     0
 75
     1
 40
27.272727
 41
204.090909
 76
     3
 10
622.278911
 20
478.136255
 30
0.0
 10
658.823891
 20
516.661096
 30
0.0
 10
667.2414
 20
516.661096
 30
0.0
 77
   256
340
C9B
  0
MTEXT
  5
C9B
102
{ACAD_REACTORS
330
C9A
102
}
100
AcDbEntity
  8
0
100
AcDbMText
 10
669.345777
 20
532.401836
 30
0.0
 40
20.0
 41
0.0
 71
     4
 72
     1
  1
\A1;\fMS UI Gothic|b0|i0|c128|p50;排油バルブ　３２A
  0
LEADER
  5
C9C
100
AcDbEntity
  8
0
100
AcDbLeader
  3
STANDARD_WS
 73
     0
 74
     0
 75
     1
 40
25.568182
 41
99.204545
 76
     3
 10
393.82695
 20
433.935722
 30
0.0
 10
424.027851
 20
381.552518
 30
0.0
 10
432.445359
 20
381.552518
 30
0.0
 77
   256
340
C9D
213
11.19929190714336
223
0.0
233
0.0
  0
MTEXT
  5
C9D
102
{ACAD_REACTORS
330
C9C
102
}
100
AcDbEntity
  8
0
100
AcDbMText
 10
522.55499
 20
396.440986
 30
0.0
 40
20.0
 41
0.0
 71
     6
 72
     1
  1
\A1;\fMS UI Gothic|b0|i0|c128|p50;ガスコック
  0
MTEXT
  5
C9F
100
AcDbEntity
  8
0
100
AcDbMText
 10
1841.684212
 20
698.370266
 30
0.0
 40
20.0
 41
0.0
 71
     1
 72
     5
  1
\fMS UI Gothic|b0|i0|c128|p50;熱管
  0
LEADER
  5
CA0
100
AcDbEntity
  8
0
100
AcDbLeader
  3
STANDARD_WS
 73
     0
 75
     1
 40
25.568182
 41
93.522727
 76
     3
 10
1645.78244
 20
608.446634
 30
0.0
 10
1602.007791
 20
563.175811
 30
0.0
 10
1593.590283
 20
563.175811
 30
0.0
 77
   256
340
CA1
  0
MTEXT
  5
CA1
102
{ACAD_REACTORS
330
CA0
102
}
100
AcDbEntity
  8
0
100
AcDbMText
 10
1591.485905
 20
578.064279
 30
0.0
 40
20.0
 41
0.0
 71
     6
 72
     1
  1
\A1;\fMS UI Gothic|b0|i0|c128|p50;バーナー
  0
LEADER
  5
CCE
100
AcDbEntity
  8
0
100
AcDbLeader
  3
STANDARD_WS
 73
     0
 74
     0
 75
     1
 40
66.022727
 41
227.045455
 76
     3
 10
951.003634
 20
1514.420242
 30
0.0
 10
1110.036886
 20
1444.125696
 30
0.0
 10
1118.454394
 20
1444.125696
 30
0.0
 77
   256
340
CCF
  0
MTEXT
  5
CCF
102
{ACAD_REACTORS
330
CCE
102
}
100
AcDbEntity
  8
0
100
AcDbMText
 10
1120.558771
 20
1479.241437
 30
0.0
 40
20.0
 41
0.0
 71
     4
 72
     1
  1
\A1;\fMS UI Gothic|b0|i0|c128|p50;サーモスタット\P過熱防止　センサー
  0
DIMENSION
  5
CDC
100
AcDbEntity
  8
0
  6
DASHED2
100
AcDbDimension
  2
*D12
 10
2121.389366
 20
1059.825471
 30
0.0
 11
1826.389366
 21
1071.929848
 31
0.0
 70
    32
  3
STANDARD_WS
100
AcDbAlignedDimension
 13
1531.389366
 23
857.888974
 33
0.0
 14
2121.389366
 24
959.238487
 34
0.0
100
AcDbRotatedDimension
  0
DIMENSION
  5
D2A
100
AcDbEntity
  8
0
  6
DASHED2
100
AcDbDimension
  2
*D13
 10
1867.721877
 20
842.87257
 30
0.0
 11
1855.6175
 21
782.87257
 31
0.0
 70
    32
  3
STANDARD_WS
100
AcDbAlignedDimension
 13
1868.889366
 23
722.87257
 33
0.0
 14
1868.889366
 24
842.87257
 34
0.0
 50
90.0
100
AcDbRotatedDimension
  0
DIMENSION
  5
D37
100
AcDbEntity
  8
0
  6
DASHED2
100
AcDbDimension
  2
*D14
 10
2031.389366
 20
1025.063814
 30
0.0
 11
2076.389366
 21
1037.168191
 31
0.0
 70
    32
  3
STANDARD_WS
100
AcDbAlignedDimension
 13
2121.389366
 23
959.238487
 33
0.0
 14
2031.389366
 24
962.702979
 34
0.0
100
AcDbRotatedDimension
  0
MTEXT
  5
E14
100
AcDbEntity
  8
0
100
AcDbMText
 10
1473.632293
 20
1499.830871
 30
0.0
 40
30.0
 41
0.0
 71
     1
 72
     5
  1
\fMS UI Gothic|b0|i0|c128|p50;熱　　　量
  0
MTEXT
  5
E15
100
AcDbEntity
  8
0
100
AcDbMText
 10
1681.78269
 20
1499.836241
 30
0.0
 40
30.0
 41
0.0
 71
     1
 72
     5
  1
\fMS UI Gothic|b0|i0|c128|p50;１７.４Kw（１５,０００Kcal/h)
  0
LINE
  5
E90
100
AcDbEntity
  8
0
  6
HIDDEN2
100
AcDbLine
 10
1657.970733
 20
589.039347
 30
0.0
 11
1657.970733
 21
521.260513
 31
0.0
  0
LINE
  5
E91
100
AcDbEntity
  8
0
  6
HIDDEN2
100
AcDbLine
 10
1697.970733
 20
589.039347
 30
0.0
 11
1697.970733
 21
521.260513
 31
0.0
  0
ARC
  5
E93
100
AcDbEntity
  8
0
  6
HIDDEN2
100
AcDbCircle
 10
1677.970733
 20
521.260513
 30
0.0
 40
20.0
100
AcDbArc
 50
180.0
 51
0.0
  0
LINE
  5
E94
100
AcDbEntity
  8
0
100
AcDbLine
 10
327.358071
 20
460.900646
 30
0.0
 11
327.358071
 21
435.900646
 31
0.0
  0
LINE
  5
E95
100
AcDbEntity
  8
0
100
AcDbLine
 10
339.358071
 20
468.900646
 30
0.0
 11
339.358071
 21
427.900646
 31
0.0
  0
LINE
  5
E96
100
AcDbEntity
  8
0
100
AcDbLine
 10
356.358071
 20
468.900646
 30
0.0
 11
356.358071
 21
427.900646
 31
0.0
  0
LINE
  5
E97
100
AcDbEntity
  8
0
100
AcDbLine
 10
368.358071
 20
460.900646
 30
0.0
 11
368.358071
 21
435.900646
 31
0.0
  0
LINE
  5
E98
100
AcDbEntity
  8
0
100
AcDbLine
 10
339.358071
 20
468.900646
 30
0.0
 11
356.358071
 21
468.900646
 31
0.0
  0
LINE
  5
E99
100
AcDbEntity
  8
0
100
AcDbLine
 10
339.358071
 20
427.900646
 30
0.0
 11
356.358071
 21
427.900646
 31
0.0
  0
LINE
  5
E9C
100
AcDbEntity
  8
0
100
AcDbLine
 10
339.358071
 20
460.900646
 30
0.0
 11
327.358071
 21
460.900646
 31
0.0
  0
LINE
  5
E9D
100
AcDbEntity
  8
0
100
AcDbLine
 10
339.358071
 20
435.900646
 30
0.0
 11
327.358071
 21
435.900646
 31
0.0
  0
LINE
  5
E9E
100
AcDbEntity
  8
0
100
AcDbLine
 10
356.358071
 20
460.900646
 30
0.0
 11
368.358071
 21
460.900646
 31
0.0
  0
LINE
  5
E9F
100
AcDbEntity
  8
0
100
AcDbLine
 10
356.358071
 20
435.900646
 30
0.0
 11
368.358071
 21
435.900646
 31
0.0
  0
LINE
  5
EA5
100
AcDbEntity
  8
0
100
AcDbLine
 10
339.358071
 20
453.400646
 30
0.0
 11
327.358071
 21
453.400646
 31
0.0
  0
LINE
  5
EA6
100
AcDbEntity
  8
0
100
AcDbLine
 10
339.358071
 20
443.400646
 30
0.0
 11
327.358071
 21
443.400646
 31
0.0
  0
LINE
  5
EA7
100
AcDbEntity
  8
0
100
AcDbLine
 10
356.358071
 20
453.400646
 30
0.0
 11
368.358071
 21
453.400646
 31
0.0
  0
LINE
  5
EA8
100
AcDbEntity
  8
0
100
AcDbLine
 10
356.358071
 20
443.400646
 30
0.0
 11
368.358071
 21
443.400646
 31
0.0
  0
LINE
  5
EAA
100
AcDbEntity
  8
0
100
AcDbLine
 10
339.358071
 20
458.400646
 30
0.0
 11
356.358071
 21
458.400646
 31
0.0
  0
LINE
  5
EAB
100
AcDbEntity
  8
0
100
AcDbLine
 10
339.358071
 20
438.400646
 30
0.0
 11
356.358071
 21
438.400646
 31
0.0
  0
LINE
  5
EB5
100
AcDbEntity
  8
0
  6
HIDDEN2
100
AcDbLine
 10
1571.389366
 20
747.87257
 30
0.0
 11
1736.389366
 21
732.87257
 31
0.0
  0
DIMENSION
  5
EC2
100
AcDbEntity
  8
0
  6
HIDDEN2
100
AcDbDimension
  2
*D15
 10
1739.36121
 20
817.87257
 30
0.0
 11
1739.36121
 21
775.37257
 31
0.0
 70
   160
  3
STANDARD_WS
100
AcDbAlignedDimension
 13
1735.684624
 23
732.87257
 33
0.0
 14
1736.389366
 24
817.87257
 34
0.0
 50
90.0
100
AcDbRotatedDimension
  0
DIMENSION
  5
F6D
100
AcDbEntity
  8
0
  6
DASHED2
100
AcDbDimension
  2
*D16
 10
2001.389366
 20
934.534674
 30
0.0
 11
1975.867481
 21
946.639051
 31
0.0
 70
    32
  3
STANDARD_WS
100
AcDbAlignedDimension
 13
2031.389366
 23
858.17941
 33
0.0
 14
2001.389366
 24
848.939638
 34
0.0
100
AcDbRotatedDimension
  0
LINE
  5
1015
100
AcDbEntity
  8
0
100
AcDbLine
 10
295.892646
 20
1457.293319
 30
0.0
 11
935.892646
 21
1457.293319
 31
0.0
  0
LINE
  5
103A
100
AcDbEntity
  8
0
100
AcDbLine
 10
305.892646
 20
727.87257
 30
0.0
 11
925.892646
 21
727.87257
 31
0.0
  0
LINE
  5
103B
100
AcDbEntity
  8
0
100
AcDbLine
 10
305.892646
 20
707.87257
 30
0.0
 11
645.892646
 21
707.87257
 31
0.0
  0
LINE
  5
103C
100
AcDbEntity
  8
0
100
AcDbLine
 10
305.892646
 20
587.87257
 30
0.0
 11
645.892646
 21
587.87257
 31
0.0
  0
LINE
  5
103D
100
AcDbEntity
  8
0
100
AcDbLine
 10
305.892646
 20
567.87257
 30
0.0
 11
925.892646
 21
567.87257
 31
0.0
  0
LINE
  5
1040
100
AcDbEntity
  8
0
100
AcDbLine
 10
305.892646
 20
507.87257
 30
0.0
 11
645.892646
 21
507.87257
 31
0.0
  0
LINE
  5
1046
100
AcDbEntity
  8
0
100
AcDbLine
 10
523.891113
 20
458.595584
 30
0.0
 11
534.939024
 21
458.595584
 31
0.0
  0
LINE
  5
1128
100
AcDbEntity
  8
0
100
AcDbLine
 10
295.892646
 20
1722.293319
 30
0.0
 11
295.892646
 21
1292.293319
 31
0.0
  0
LINE
  5
112D
100
AcDbEntity
  8
0
100
AcDbLine
 10
255.892646
 20
1752.293319
 30
0.0
 11
295.892646
 21
1722.293319
 31
0.0
  0
LINE
  5
1147
100
AcDbEntity
  8
0
100
AcDbLine
 10
480.892638
 20
1722.316584
 30
0.0
 11
481.068786
 21
1457.316584
 31
0.0
  0
LINE
  5
1148
100
AcDbEntity
  8
0
100
AcDbLine
 10
410.892654
 20
1722.270054
 30
0.0
 11
411.068801
 21
1457.270054
 31
0.0
  0
LINE
  5
1149
100
AcDbEntity
  8
0
100
AcDbLine
 10
385.892659
 20
1722.253436
 30
0.0
 11
386.068807
 21
1457.253436
 31
0.0
  0
LINE
  5
114A
100
AcDbEntity
  8
0
100
AcDbLine
 10
505.892633
 20
1722.333201
 30
0.0
 11
506.06878
 21
1457.333201
 31
0.0
  0
LINE
  5
114B
100
AcDbEntity
  8
0
100
AcDbLine
 10
315.892675
 20
1722.206907
 30
0.0
 11
316.068822
 21
1457.206907
 31
0.0
  0
LINE
  5
114C
100
AcDbEntity
  8
0
100
AcDbLine
 10
575.892617
 20
1722.379731
 30
0.0
 11
576.068765
 21
1457.379731
 31
0.0
  0
LINE
  5
115A
100
AcDbEntity
  8
0
100
AcDbLine
 10
305.892646
 20
85.87257
 30
0.0
 11
925.892646
 21
85.87257
 31
0.0
  0
LINE
  5
1167
100
AcDbEntity
  8
0
100
AcDbLine
 10
915.892617
 20
1722.379731
 30
0.0
 11
916.068765
 21
1457.379731
 31
0.0
  0
LINE
  5
1168
100
AcDbEntity
  8
0
100
AcDbLine
 10
655.892675
 20
1722.206907
 30
0.0
 11
656.068822
 21
1457.206907
 31
0.0
  0
LINE
  5
1169
100
AcDbEntity
  8
0
100
AcDbLine
 10
845.892633
 20
1722.333201
 30
0.0
 11
846.06878
 21
1457.333201
 31
0.0
  0
LINE
  5
116A
100
AcDbEntity
  8
0
100
AcDbLine
 10
725.892659
 20
1722.253436
 30
0.0
 11
726.068807
 21
1457.253436
 31
0.0
  0
LINE
  5
116B
100
AcDbEntity
  8
0
100
AcDbLine
 10
750.892654
 20
1722.270054
 30
0.0
 11
751.068801
 21
1457.270054
 31
0.0
  0
LINE
  5
116C
100
AcDbEntity
  8
0
100
AcDbLine
 10
820.892638
 20
1722.316584
 30
0.0
 11
821.068786
 21
1457.316584
 31
0.0
  0
LINE
  5
116D
100
AcDbEntity
  8
0
100
AcDbLine
 10
935.892646
 20
1722.293319
 30
0.0
 11
935.892646
 21
1292.293319
 31
0.0
  0
LINE
  5
116F
100
AcDbEntity
  8
0
100
AcDbLine
 10
975.892646
 20
1842.293319
 30
0.0
 11
975.892646
 21
1252.293319
 31
0.0
  0
LINE
  5
1172
100
AcDbEntity
  8
0
100
AcDbLine
 10
595.892646
 20
1252.293319
 30
0.0
 11
975.892646
 21
1252.293319
 31
0.0
  0
LINE
  5
1177
100
AcDbEntity
  8
0
100
AcDbLine
 10
928.853647
 20
1499.169051
 30
0.0
 11
928.853647
 21
1457.293319
 31
0.0
  0
LINE
  5
1178
100
AcDbEntity
  8
0
100
AcDbLine
 10
923.885935
 20
1499.169051
 30
0.0
 11
923.885935
 21
1457.293319
 31
0.0
  0
INSERT
  5
1179
100
AcDbEntity
  8
0
100
AcDbBlockReference
  2
A$C4F2B35B1
 10
927.191091
 20
1499.132509
 30
0.0
  0
LWPOLYLINE
  5
117A
100
AcDbEntity
  8
0
100
AcDbPolyline
 90
        4
 70
     1
 43
0.0
 10
922.063791
 20
1614.990808
 10
925.470021
 20
1614.990808
 10
925.470021
 20
1499.269346
 10
922.063791
 20
1499.269346
  0
LINE
  5
117B
100
AcDbEntity
  8
0
100
AcDbLine
 10
975.892646
 20
1752.293319
 30
0.0
 11
935.892646
 21
1722.293319
 31
0.0
  0
LINE
  5
117C
100
AcDbEntity
  8
0
100
AcDbLine
 10
595.892646
 20
1752.293319
 30
0.0
 11
975.892646
 21
1752.293319
 31
0.0
  0
LINE
  5
117D
100
AcDbEntity
  8
0
100
AcDbLine
 10
595.892646
 20
1842.293319
 30
0.0
 11
975.892646
 21
1842.293319
 31
0.0
  0
LINE
  5
117E
100
AcDbEntity
  8
0
100
AcDbLine
 10
690.892646
 20
1778.293319
 30
0.0
 11
880.892646
 21
1778.293319
 31
0.0
  0
LINE
  5
117F
100
AcDbEntity
  8
0
100
AcDbLine
 10
690.892646
 20
1815.293319
 30
0.0
 11
880.892646
 21
1815.293319
 31
0.0
  0
LINE
  5
1180
100
AcDbEntity
  8
0
100
AcDbLine
 10
680.892646
 20
1768.293319
 30
0.0
 11
890.892646
 21
1768.293319
 31
0.0
  0
LINE
  5
1181
100
AcDbEntity
  8
0
100
AcDbLine
 10
680.892646
 20
1825.293319
 30
0.0
 11
890.892646
 21
1825.293319
 31
0.0
  0
LINE
  5
1182
100
AcDbEntity
  8
0
100
AcDbLine
 10
635.892646
 20
1722.293319
 30
0.0
 11
935.892646
 21
1722.293319
 31
0.0
  0
LINE
  5
1184
100
AcDbEntity
  8
0
100
AcDbLine
 10
690.892646
 20
1815.293319
 30
0.0
 11
690.892646
 21
1778.293319
 31
0.0
  0
LINE
  5
1185
100
AcDbEntity
  8
0
100
AcDbLine
 10
680.892646
 20
1825.293319
 30
0.0
 11
680.892646
 21
1768.293319
 31
0.0
  0
LINE
  5
1186
100
AcDbEntity
  8
0
100
AcDbLine
 10
880.892646
 20
1815.293319
 30
0.0
 11
880.892646
 21
1778.293319
 31
0.0
  0
LINE
  5
1187
100
AcDbEntity
  8
0
100
AcDbLine
 10
890.892646
 20
1825.293319
 30
0.0
 11
890.892646
 21
1768.293319
 31
0.0
  0
DIMENSION
  5
1188
100
AcDbEntity
  8
0
  6
DASHED2
100
AcDbDimension
  2
*D17
 10
937.802868
 20
1768.293319
 30
0.0
 11
925.698491
 21
1796.793319
 31
0.0
 12
-40.0
 22
0.0
 32
0.0
 70
    32
  3
STANDARD_WS
100
AcDbAlignedDimension
 13
900.933266
 23
1825.293319
 33
0.0
 14
903.479671
 24
1768.293319
 34
0.0
 50
90.0
100
AcDbRotatedDimension
  0
LINE
  5
1255
100
AcDbEntity
  8
0
100
AcDbLine
 10
975.892646
 20
942.87257
 30
0.0
 11
975.892646
 21
842.87257
 31
0.0
  0
LINE
  5
1257
100
AcDbEntity
  8
0
100
AcDbLine
 10
970.892646
 20
812.87257
 30
0.0
 11
970.892646
 21
82.87257
 31
0.0
  0
LINE
  5
1259
100
AcDbEntity
  8
0
100
AcDbLine
 10
925.892646
 20
812.87257
 30
0.0
 11
925.892646
 21
82.87257
 31
0.0
  0
LINE
  5
125A
100
AcDbEntity
  8
0
100
AcDbLine
 10
645.892646
 20
707.87257
 30
0.0
 11
645.892646
 21
587.87257
 31
0.0
  0
LINE
  5
125B
100
AcDbEntity
  8
0
100
AcDbLine
 10
570.892646
 20
42.87257
 30
0.0
 11
1000.892646
 21
42.87257
 31
0.0
  0
LINE
  5
125C
100
AcDbEntity
  8
0
100
AcDbLine
 10
970.892646
 20
82.87257
 30
0.0
 11
925.892646
 21
82.87257
 31
0.0
  0
CIRCLE
  5
125D
100
AcDbEntity
  8
0
100
AcDbCircle
 10
950.892646
 20
62.87257
 30
0.0
 40
20.0
  0
LINE
  5
125E
100
AcDbEntity
  8
0
100
AcDbLine
 10
645.892646
 20
85.87257
 30
0.0
 11
925.892646
 21
85.87257
 31
0.0
  0
LINE
  5
1261
100
AcDbEntity
  8
0
100
AcDbLine
 10
645.892646
 20
507.87257
 30
0.0
 11
975.892646
 21
507.87257
 31
0.0
  0
LINE
  5
1262
100
AcDbEntity
  8
0
100
AcDbLine
 10
595.892646
 20
812.87257
 30
0.0
 11
975.892646
 21
812.87257
 31
0.0
  0
LINE
  5
1263
100
AcDbEntity
  8
0
100
AcDbLine
 10
595.892646
 20
842.87257
 30
0.0
 11
975.892646
 21
842.87257
 31
0.0
  0
LINE
  5
1264
100
AcDbEntity
  8
0
100
AcDbLine
 10
708.358071
 20
438.38906
 30
0.0
 11
720.556373
 21
438.38906
 31
0.0
  0
LINE
  5
1265
100
AcDbEntity
  8
0
100
AcDbLine
 10
708.358071
 20
458.595584
 30
0.0
 11
720.556373
 21
458.595584
 31
0.0
  0
INSERT
  5
1267
100
AcDbEntity
  8
0
100
AcDbBlockReference
  2
A$C560405F2
 10
530.171205
 20
449.816945
 30
0.0
  0
INSERT
  5
1268
100
AcDbEntity
  8
0
100
AcDbBlockReference
  2
A$C061D45EC
 10
535.052191
 20
333.530762
 30
0.0
  0
LINE
  5
126C
100
AcDbEntity
  8
0
100
AcDbLine
 10
708.358071
 20
460.900646
 30
0.0
 11
708.358071
 21
435.900646
 31
0.0
  0
LINE
  5
126D
100
AcDbEntity
  8
0
100
AcDbLine
 10
696.358071
 20
468.900646
 30
0.0
 11
696.358071
 21
427.900646
 31
0.0
  0
LINE
  5
126E
100
AcDbEntity
  8
0
100
AcDbLine
 10
679.358071
 20
468.900646
 30
0.0
 11
679.358071
 21
427.900646
 31
0.0
  0
LINE
  5
126F
100
AcDbEntity
  8
0
100
AcDbLine
 10
667.358071
 20
460.900646
 30
0.0
 11
667.358071
 21
435.900646
 31
0.0
  0
LINE
  5
1270
100
AcDbEntity
  8
0
100
AcDbLine
 10
424.710966
 20
438.38906
 30
0.0
 11
484.311013
 21
438.38906
 31
0.0
  0
LINE
  5
1271
100
AcDbEntity
  8
0
100
AcDbLine
 10
679.358071
 20
438.400646
 30
0.0
 11
696.358071
 21
438.400646
 31
0.0
  0
LINE
  5
1272
100
AcDbEntity
  8
0
100
AcDbLine
 10
679.358071
 20
427.900646
 30
0.0
 11
696.358071
 21
427.900646
 31
0.0
  0
LINE
  5
1273
100
AcDbEntity
  8
0
100
AcDbLine
 10
679.358071
 20
443.400646
 30
0.0
 11
667.358071
 21
443.400646
 31
0.0
  0
LINE
  5
1274
100
AcDbEntity
  8
0
100
AcDbLine
 10
679.358071
 20
435.900646
 30
0.0
 11
667.358071
 21
435.900646
 31
0.0
  0
LINE
  5
1275
100
AcDbEntity
  8
0
100
AcDbLine
 10
696.358071
 20
443.400646
 30
0.0
 11
708.358071
 21
443.400646
 31
0.0
  0
LINE
  5
1276
100
AcDbEntity
  8
0
100
AcDbLine
 10
696.358071
 20
435.900646
 30
0.0
 11
708.358071
 21
435.900646
 31
0.0
  0
LINE
  5
1277
100
AcDbEntity
  8
0
100
AcDbLine
 10
424.926157
 20
458.595584
 30
0.0
 11
484.311013
 21
458.595584
 31
0.0
  0
LINE
  5
1279
100
AcDbEntity
  8
0
100
AcDbLine
 10
679.358071
 20
458.400646
 30
0.0
 11
696.358071
 21
458.400646
 31
0.0
  0
LINE
  5
127A
100
AcDbEntity
  8
0
100
AcDbLine
 10
679.358071
 20
468.900646
 30
0.0
 11
696.358071
 21
468.900646
 31
0.0
  0
LINE
  5
127B
100
AcDbEntity
  8
0
100
AcDbLine
 10
679.358071
 20
453.400646
 30
0.0
 11
667.358071
 21
453.400646
 31
0.0
  0
LINE
  5
127C
100
AcDbEntity
  8
0
100
AcDbLine
 10
679.358071
 20
460.900646
 30
0.0
 11
667.358071
 21
460.900646
 31
0.0
  0
LINE
  5
127D
100
AcDbEntity
  8
0
100
AcDbLine
 10
696.358071
 20
453.400646
 30
0.0
 11
708.358071
 21
453.400646
 31
0.0
  0
LINE
  5
127E
100
AcDbEntity
  8
0
100
AcDbLine
 10
696.358071
 20
460.900646
 30
0.0
 11
708.358071
 21
460.900646
 31
0.0
  0
LWPOLYLINE
  5
127F
100
AcDbEntity
  8
0
100
AcDbPolyline
 90
        4
 70
     1
 43
0.0
 10
895.761434
 20
401.516808
 10
923.831879
 20
401.516808
 10
923.831879
 20
352.089943
 10
895.761434
 20
352.089943
  0
MTEXT
  5
1280
102
{ACAD_REACTORS
330
1281
102
}
100
AcDbEntity
  8
0
100
AcDbMText
 10
593.823821
 20
203.877658
 30
0.0
 40
20.0
 41
0.0
 71
     4
 72
     1
  1
\A1;\fMS UI Gothic|b0|i0|c128|p50;排水バルブ　４０A
  0
LEADER
  5
1281
100
AcDbEntity
  8
0
100
AcDbLeader
  3
STANDARD_WS
 73
     0
 74
     0
 75
     1
 40
27.272727
 41
204.090909
 76
     3
 10
623.715811
 20
291.37931
 30
0.0
 10
579.44772
 20
188.136918
 30
0.0
 10
587.865228
 20
188.136918
 30
0.0
 77
   256
340
1280
213
-3.854215968480104
223
0.0
233
0.0
  0
CIRCLE
  5
1282
100
AcDbEntity
  8
0
100
AcDbCircle
 10
625.388426
 20
305.551953
 30
0.0
 40
20.0
  0
CIRCLE
  5
1283
100
AcDbEntity
  8
0
100
AcDbCircle
 10
625.388426
 20
305.551953
 30
0.0
 40
28.0
  0
CIRCLE
  5
1284
100
AcDbEntity
  8
0
100
AcDbCircle
 10
625.388426
 20
305.551953
 30
0.0
 40
25.0
  0
LINE
  5
1285
100
AcDbEntity
  8
0
100
AcDbLine
 10
920.892646
 20
352.089943
 30
0.0
 11
920.892646
 21
282.87257
 31
0.0
  0
CIRCLE
  5
1286
100
AcDbEntity
  8
0
100
AcDbCircle
 10
838.736028
 20
450.291181
 30
0.0
 40
10.734429
  0
CIRCLE
  5
1287
100
AcDbEntity
  8
0
100
AcDbCircle
 10
838.736028
 20
450.291181
 30
0.0
 40
22.19493
  0
CIRCLE
  5
1288
100
AcDbEntity
  8
0
100
AcDbCircle
 10
838.736028
 20
450.291181
 30
0.0
 40
14.19493
  0
CIRCLE
  5
1289
100
AcDbEntity
  8
0
100
AcDbCircle
 10
838.736028
 20
450.291181
 30
0.0
 40
24.19493
  0
LWPOLYLINE
  5
128A
100
AcDbEntity
  8
0
100
AcDbPolyline
 90
        4
 70
     1
 43
0.0
 10
739.29875
 20
458.917359
 10
745.538968
 20
458.917359
 10
745.538968
 20
438.292708
 10
739.29875
 20
438.292708
  0
LINE
  5
128B
100
AcDbEntity
  8
0
100
AcDbLine
 10
813.891113
 20
469.736382
 30
0.0
 11
813.891113
 21
428.865718
 31
0.0
  0
CIRCLE
  5
128C
100
AcDbEntity
  8
0
100
AcDbCircle
 10
742.510868
 20
448.48343
 30
0.0
 40
11.385849
  0
LWPOLYLINE
  5
128D
100
AcDbEntity
  8
0
100
AcDbPolyline
 90
        4
 70
     1
 43
0.0
 10
720.556373
 20
461.292511
 10
764.710966
 20
461.292511
 10
764.710966
 20
435.674354
 10
720.556373
 20
435.674354
  0
LINE
  5
128E
100
AcDbEntity
  8
0
100
AcDbLine
 10
737.243871
 20
438.38906
 30
0.0
 11
739.29875
 21
438.38906
 31
0.0
  0
LINE
  5
128F
100
AcDbEntity
  8
0
100
AcDbLine
 10
720.556373
 20
440.38906
 30
0.0
 11
734.503451
 21
440.38906
 31
0.0
  0
LINE
  5
1290
100
AcDbEntity
  8
0
100
AcDbLine
 10
750.518285
 20
440.38906
 30
0.0
 11
764.710966
 21
440.38906
 31
0.0
  0
LINE
  5
1291
100
AcDbEntity
  8
0
100
AcDbLine
 10
813.891113
 20
428.865718
 30
0.0
 11
827.495736
 21
428.865718
 31
0.0
  0
CIRCLE
  5
1292
100
AcDbEntity
  8
0
100
AcDbCircle
 10
620.685028
 20
474.816943
 30
0.0
 40
17.938263
  0
LINE
  5
1294
100
AcDbEntity
  8
0
100
AcDbLine
 10
720.556373
 20
456.595584
 30
0.0
 11
734.521469
 21
456.595584
 31
0.0
  0
LINE
  5
1295
100
AcDbEntity
  8
0
100
AcDbLine
 10
750.500267
 20
456.595584
 30
0.0
 11
764.710966
 21
456.595584
 31
0.0
  0
LINE
  5
1296
100
AcDbEntity
  8
0
100
AcDbLine
 10
813.891113
 20
458.595584
 30
0.0
 11
764.175824
 21
458.595584
 31
0.0
  0
LINE
  5
1297
100
AcDbEntity
  8
0
100
AcDbLine
 10
813.891113
 20
469.736382
 30
0.0
 11
824.338848
 21
469.736382
 31
0.0
  0
ARC
  5
1298
100
AcDbEntity
  8
0
100
AcDbCircle
 10
879.659454
 20
417.362393
 30
0.0
 40
43.921086
100
AcDbArc
 50
10.393885
 51
79.606115
  0
LINE
  5
1299
100
AcDbEntity
  8
0
100
AcDbLine
 10
874.939024
 20
460.595584
 30
0.0
 11
874.939024
 21
436.702795
 31
0.0
  0
LINE
  5
129A
100
AcDbEntity
  8
0
100
AcDbLine
 10
863.891113
 20
469.736382
 30
0.0
 11
863.891113
 21
428.865718
 31
0.0
  0
ARC
  5
129B
100
AcDbEntity
  8
0
100
AcDbCircle
 10
872.284207
 20
409.780621
 30
0.0
 40
27.052754
100
AcDbArc
 50
2.937713
 51
84.368225
  0
LINE
  5
129C
100
AcDbEntity
  8
0
100
AcDbLine
 10
899.301409
 20
411.167083
 30
0.0
 11
922.892646
 21
411.167083
 31
0.0
  0
ARC
  5
129D
100
AcDbEntity
  8
0
100
AcDbCircle
 10
872.284207
 20
409.780621
 30
0.0
 40
29.052754
100
AcDbArc
 50
84.757044
 51
100.033317
  0
LINE
  5
129E
100
AcDbEntity
  8
0
100
AcDbLine
 10
863.891113
 20
438.38906
 30
0.0
 11
867.222612
 21
438.38906
 31
0.0
  0
LINE
  5
129F
100
AcDbEntity
  8
0
100
AcDbLine
 10
849.97632
 20
428.865718
 30
0.0
 11
863.891113
 21
428.865718
 31
0.0
  0
LINE
  5
12A0
100
AcDbEntity
  8
0
100
AcDbLine
 10
900.892646
 20
404.719026
 30
0.0
 11
900.892646
 21
401.516808
 31
0.0
  0
LINE
  5
12A1
100
AcDbEntity
  8
0
100
AcDbLine
 10
920.892646
 20
411.167083
 30
0.0
 11
920.892646
 21
401.516808
 31
0.0
  0
CIRCLE
  5
12A2
100
AcDbEntity
  8
0
100
AcDbCircle
 10
910.252241
 20
379.361148
 30
0.0
 40
9.589643
  0
CIRCLE
  5
12A3
100
AcDbEntity
  8
0
100
AcDbCircle
 10
910.252241
 20
379.361148
 30
0.0
 40
6.589643
  0
LINE
  5
12A4
100
AcDbEntity
  8
0
100
AcDbLine
 10
922.892646
 20
424.925551
 30
0.0
 11
922.892646
 21
411.167083
 31
0.0
  0
ARC
  5
12A5
100
AcDbEntity
  8
0
100
AcDbCircle
 10
872.284207
 20
409.780621
 30
0.0
 40
29.052754
100
AcDbArc
 50
349.966683
 51
2.735321
  0
LWPOLYLINE
  5
12A6
100
AcDbEntity
  8
0
100
AcDbPolyline
 90
        6
 70
     0
 43
0.0
 10
851.418573
 20
488.745729
 10
851.418573
 20
475.225659
 10
839.356706
 20
475.225659
 10
839.356706
 20
502.774147
 10
851.418573
 20
502.774147
 10
851.418573
 20
493.745729
  0
LINE
  5
12A7
100
AcDbEntity
  8
0
100
AcDbLine
 10
863.891113
 20
458.595584
 30
0.0
 11
874.939024
 21
458.595584
 31
0.0
  0
LINE
  5
12A8
100
AcDbEntity
  8
0
100
AcDbLine
 10
844.640425
 20
488.745729
 30
0.0
 11
872.931776
 21
488.745729
 31
0.0
  0
LINE
  5
12A9
100
AcDbEntity
  8
0
100
AcDbLine
 10
844.640425
 20
493.745729
 30
0.0
 11
872.931776
 21
493.745729
 31
0.0
  0
LINE
  5
12AA
100
AcDbEntity
  8
0
100
AcDbLine
 10
844.640425
 20
493.745729
 30
0.0
 11
844.640425
 21
488.745729
 31
0.0
  0
LINE
  5
12AB
100
AcDbEntity
  8
0
100
AcDbLine
 10
853.133208
 20
469.736382
 30
0.0
 11
863.891113
 21
469.736382
 31
0.0
  0
ARC
  5
12AC
100
AcDbEntity
  8
0
100
AcDbCircle
 10
872.931776
 20
491.245729
 30
0.0
 40
2.5
100
AcDbArc
 50
270.0
 51
90.0
  0
LINE
  5
12AD
100
AcDbEntity
  8
0
100
AcDbLine
 10
874.939024
 20
460.595584
 30
0.0
 11
887.222612
 21
460.595584
 31
0.0
  0
LINE
  5
12AE
100
AcDbEntity
  8
0
100
AcDbLine
 10
848.703943
 20
507.57004
 30
0.0
 11
848.703943
 21
505.607312
 31
0.0
  0
LINE
  5
12AF
100
AcDbEntity
  8
0
100
AcDbLine
 10
842.221901
 20
507.57004
 30
0.0
 11
842.221901
 21
505.411044
 31
0.0
  0
LINE
  5
12B0
100
AcDbEntity
  8
0
100
AcDbLine
 10
847.721816
 20
505.21477
 30
0.0
 11
847.721816
 21
502.8595
 31
0.0
  0
LINE
  5
12B1
100
AcDbEntity
  8
0
100
AcDbLine
 10
843.989731
 20
505.411044
 30
0.0
 11
843.989731
 21
503.055774
 31
0.0
  0
LWPOLYLINE
  5
12B2
100
AcDbEntity
  8
0
100
AcDbPolyline
 90
        4
 70
     1
 43
0.0
 10
840.650497
 20
505.411044
 10
850.471773
 20
505.411044
 10
850.471773
 20
503.055774
 10
840.650497
 20
503.055774
  0
LINE
  5
12B3
100
AcDbEntity
  8
0
100
AcDbLine
 10
920.892646
 20
507.87257
 30
0.0
 11
920.892646
 21
432.491362
 31
0.0
  0
LINE
  5
12B5
100
AcDbEntity
  8
0
100
AcDbLine
 10
645.892646
 20
587.87257
 30
0.0
 11
925.892646
 21
587.87257
 31
0.0
  0
LINE
  5
12B6
100
AcDbEntity
  8
0
100
AcDbLine
 10
645.892646
 20
707.87257
 30
0.0
 11
925.892646
 21
707.87257
 31
0.0
  0
LINE
  5
12B9
100
AcDbEntity
  8
0
100
AcDbLine
 10
725.892646
 20
682.675558
 30
0.0
 11
845.892646
 21
682.675558
 31
0.0
  0
LINE
  5
12BA
100
AcDbEntity
  8
0
100
AcDbLine
 10
725.892646
 20
672.675558
 30
0.0
 11
845.892646
 21
672.675558
 31
0.0
  0
CIRCLE
  5
12BB
100
AcDbEntity
  8
0
100
AcDbCircle
 10
785.892646
 20
644.044346
 30
0.0
 40
15.0
  0
ARC
  5
12BC
100
AcDbEntity
  8
0
100
AcDbCircle
 10
725.892646
 20
677.675558
 30
0.0
 40
5.0
100
AcDbArc
 50
90.0
 51
270.0
  0
ARC
  5
12BD
100
AcDbEntity
  8
0
100
AcDbCircle
 10
845.892646
 20
677.675558
 30
0.0
 40
5.0
100
AcDbArc
 50
270.0
 51
90.0
  0
LINE
  5
12BE
100
AcDbEntity
  8
0
100
AcDbLine
 10
975.892646
 20
842.87257
 30
0.0
 11
975.892646
 21
812.87257
 31
0.0
  0
LINE
  5
12C0
100
AcDbEntity
  8
0
100
AcDbLine
 10
595.892646
 20
942.87257
 30
0.0
 11
975.892646
 21
942.87257
 31
0.0
  0
LINE
  5
12C1
100
AcDbEntity
  8
0
100
AcDbLine
 10
680.892646
 20
1002.87257
 30
0.0
 11
890.892646
 21
1002.87257
 31
0.0
  0
LINE
  5
12C2
100
AcDbEntity
  8
0
100
AcDbLine
 10
680.892646
 20
1002.87257
 30
0.0
 11
680.892646
 21
942.87257
 31
0.0
  0
DIMENSION
  5
12C3
100
AcDbEntity
  8
0
  6
DASHED2
100
AcDbDimension
  2
*D18
 10
936.118748
 20
942.87257
 30
0.0
 11
924.014371
 21
972.87257
 31
0.0
 70
    32
  3
STANDARD_WS
100
AcDbAlignedDimension
 13
902.342276
 23
1002.87257
 33
0.0
 14
890.892646
 24
942.87257
 34
0.0
 50
90.0
100
AcDbRotatedDimension
  0
LINE
  5
12C4
100
AcDbEntity
  8
0
100
AcDbLine
 10
890.892646
 20
1002.87257
 30
0.0
 11
890.892646
 21
942.87257
 31
0.0
  0
DIMENSION
  5
12FF
100
AcDbEntity
  8
0
  6
DASHED2
100
AcDbDimension
  2
*D19
 10
975.892646
 20
1065.743097
 30
0.0
 11
615.892646
 21
1077.847474
 31
0.0
 70
    32
  3
STANDARD_WS
100
AcDbAlignedDimension
 13
255.892646
 23
961.023297
 33
0.0
 14
975.892646
 24
965.783284
 34
0.0
100
AcDbRotatedDimension
  0
LINE
  5
138B
100
AcDbEntity
  8
0
100
AcDbLine
 10
649.136235
 20
458.595584
 30
0.0
 11
649.136235
 21
507.215658
 31
0.0
  0
LINE
  5
138C
100
AcDbEntity
  8
0
100
AcDbLine
 10
665.958006
 20
458.595584
 30
0.0
 11
665.958006
 21
507.215658
 31
0.0
  0
LINE
  5
1393
100
AcDbEntity
  8
0
100
AcDbLine
 10
295.892646
 20
1292.293319
 30
0.0
 11
935.892646
 21
1292.293319
 31
0.0
  0
LINE
  5
1395
100
AcDbEntity
  8
0
100
AcDbLine
 10
935.892646
 20
1292.293319
 30
0.0
 11
975.892646
 21
1252.293319
 31
0.0
  0
LINE
  5
1396
100
AcDbEntity
  8
0
100
AcDbLine
 10
295.892646
 20
1292.293319
 30
0.0
 11
255.892646
 21
1252.293319
 31
0.0
  0
DIMENSION
  5
13B9
100
AcDbEntity
  8
0
  6
DASHED2
100
AcDbDimension
  2
*D26
 10
184.157334
 20
1292.293319
 30
0.0
 11
172.052957
 21
1507.293319
 31
0.0
 70
    32
  3
STANDARD_WS
100
AcDbAlignedDimension
 13
275.221074
 23
1722.293319
 33
0.0
 14
275.850634
 24
1292.293319
 34
0.0
 50
90.0
100
AcDbRotatedDimension
  0
DIMENSION
  5
13E7
100
AcDbEntity
  8
0
  6
DASHED2
100
AcDbDimension
  2
*D27
 10
340.892646
 20
1891.836264
 30
0.0
 11
298.392646
 21
1903.940642
 31
0.0
 70
    32
  3
STANDARD_WS
100
AcDbAlignedDimension
 13
255.892646
 23
1857.118081
 33
0.0
 14
340.892646
 24
1854.638208
 34
0.0
100
AcDbRotatedDimension
  0
DIMENSION
  5
13F3
100
AcDbEntity
  8
0
  6
DASHED2
100
AcDbDimension
  2
*D28
 10
550.892646
 20
1891.836264
 30
0.0
 11
445.892646
 21
1903.940642
 31
0.0
 70
    32
  3
STANDARD_WS
100
AcDbAlignedDimension
 13
340.892646
 23
1854.638208
 33
0.0
 14
550.892646
 24
1854.638208
 34
0.0
100
AcDbRotatedDimension
1001
ACAD
1000
DSTYLE
1002
{
1070
    75
1070
     1
1070
   287
1070
     4
1002
}
  0
DIMENSION
  5
13FF
100
AcDbEntity
  8
0
  6
DASHED2
100
AcDbDimension
  2
*D29
 10
680.892646
 20
1891.836264
 30
0.0
 11
615.892646
 21
1903.940642
 31
0.0
 70
    32
  3
STANDARD_WS
100
AcDbAlignedDimension
 13
550.892646
 23
1854.638208
 33
0.0
 14
680.892646
 24
1852.158335
 34
0.0
100
AcDbRotatedDimension
1001
ACAD
1000
DSTYLE
1002
{
1070
    75
1070
     1
1070
   287
1070
     4
1002
}
  0
DIMENSION
  5
140B
100
AcDbEntity
  8
0
  6
DASHED2
100
AcDbDimension
  2
*D30
 10
890.892646
 20
1891.836264
 30
0.0
 11
785.892646
 21
1903.940642
 31
0.0
 70
    32
  3
STANDARD_WS
100
AcDbAlignedDimension
 13
680.892646
 23
1852.158335
 33
0.0
 14
890.892646
 24
1857.118081
 34
0.0
100
AcDbRotatedDimension
1001
ACAD
1000
DSTYLE
1002
{
1070
    75
1070
     1
1070
   287
1070
     4
1002
}
  0
DIMENSION
  5
1417
100
AcDbEntity
  8
0
  6
DASHED2
100
AcDbDimension
  2
*D31
 10
975.892646
 20
1891.836264
 30
0.0
 11
933.392646
 21
1903.940642
 31
0.0
 70
    32
  3
STANDARD_WS
100
AcDbAlignedDimension
 13
890.892646
 23
1857.118081
 33
0.0
 14
975.892646
 24
1854.638208
 34
0.0
100
AcDbRotatedDimension
1001
ACAD
1000
DSTYLE
1002
{
1070
    75
1070
     1
1070
   287
1070
     4
1002
}
  0
DIMENSION
  5
14BD
100
AcDbEntity
  8
0
  6
DASHED2
100
AcDbDimension
  2
*D32
 10
975.892646
 20
1951.353158
 30
0.0
 11
615.892646
 21
1963.457535
 31
0.0
 70
    32
  3
STANDARD_WS
100
AcDbAlignedDimension
 13
255.892646
 23
1859.597948
 33
0.0
 14
975.892646
 24
1859.597948
 34
0.0
100
AcDbRotatedDimension
  0
DIMENSION
  5
14F7
100
AcDbEntity
  8
0
  6
DASHED2
100
AcDbDimension
  2
*D33
 10
935.892646
 20
1376.528547
 30
0.0
 11
615.892646
 21
1388.632924
 31
0.0
 70
    32
  3
STANDARD_WS
100
AcDbAlignedDimension
 13
295.892646
 23
1292.293319
 33
0.0
 14
935.892646
 24
1292.293319
 34
0.0
100
AcDbRotatedDimension
  0
INSERT
  5
1517
100
AcDbEntity
  8
0
100
AcDbBlockReference
  2
A$C69A01657
 10
540.675421
 20
428.162674
 30
0.0
  0
LINE
  5
1518
100
AcDbEntity
  8
0
100
AcDbLine
 10
484.311013
 20
461.595584
 30
0.0
 11
484.311013
 21
435.38906
 31
0.0
  0
LINE
  5
1519
100
AcDbEntity
  8
0
100
AcDbLine
 10
524.712136
 20
461.595584
 30
0.0
 11
524.712136
 21
435.38906
 31
0.0
  0
LINE
  5
151A
100
AcDbEntity
  8
0
100
AcDbLine
 10
484.311013
 20
435.38906
 30
0.0
 11
524.712136
 21
435.38906
 31
0.0
  0
LINE
  5
151B
100
AcDbEntity
  8
0
100
AcDbLine
 10
484.311013
 20
461.595584
 30
0.0
 11
524.712136
 21
461.595584
 31
0.0
  0
LINE
  5
151C
100
AcDbEntity
  8
0
100
AcDbLine
 10
524.712136
 20
458.595584
 30
0.0
 11
599.455001
 21
458.595584
 31
0.0
  0
LINE
  5
151D
100
AcDbEntity
  8
0
100
AcDbLine
 10
524.712136
 20
438.38906
 30
0.0
 11
667.358062
 21
438.38906
 31
0.0
  0
LWPOLYLINE
  5
151E
100
AcDbEntity
  8
0
100
AcDbPolyline
 90
        4
 70
     1
 43
0.0
 10
500.129836
 20
474.166928
 10
510.838589
 20
474.166928
 10
510.838589
 20
461.937357
 10
500.129836
 20
461.937357
  0
INSERT
  5
1525
100
AcDbEntity
  8
0
100
AcDbBlockReference
  2
A$C78CB6814
 10
730.676595
 20
380.709574
 30
0.0
  0
LINE
  5
1526
100
AcDbEntity
  8
0
100
AcDbLine
 10
764.710966
 20
438.38906
 30
0.0
 11
813.891113
 21
438.38906
 31
0.0
  0
LINE
  5
1527
100
AcDbEntity
  8
0
100
AcDbLine
 10
745.538968
 20
438.38906
 30
0.0
 11
747.777865
 21
438.38906
 31
0.0
  0
LINE
  5
1535
100
AcDbEntity
  8
0
100
AcDbLine
 10
667.046657
 20
458.321297
 30
0.0
 11
639.077695
 21
458.321297
 31
0.0
  0
LINE
  5
15F6
100
AcDbEntity
  8
0
  6
HIDDEN2
100
AcDbLine
 10
1571.389366
 20
817.87257
 30
0.0
 11
1571.389366
 21
747.87257
 31
0.0
  0
LINE
  5
15F8
100
AcDbEntity
  8
0
  6
HIDDEN2
100
AcDbLine
 10
1531.389366
 20
842.87257
 30
0.0
 11
1571.389366
 21
817.87257
 31
0.0
  0
DIMENSION
  5
1605
100
AcDbEntity
  8
0
  6
DASHED2
100
AcDbDimension
  2
*D45
 10
1606.917881
 20
747.87257
 30
0.0
 11
1594.813504
 21
782.87257
 31
0.0
 70
    32
  3
STANDARD_WS
100
AcDbAlignedDimension
 13
1571.389366
 23
817.87257
 33
0.0
 14
1571.389366
 24
747.87257
 34
0.0
 50
90.0
100
AcDbRotatedDimension
  0
DIMENSION
  5
1612
100
AcDbEntity
  8
0
  6
DASHED2
100
AcDbDimension
  2
*D46
 10
1571.389366
 20
907.056562
 30
0.0
 11
1551.389366
 21
919.160939
 31
0.0
 70
    32
  3
STANDARD_WS
100
AcDbAlignedDimension
 13
1531.389366
 23
842.87257
 33
0.0
 14
1571.389366
 24
817.87257
 34
0.0
100
AcDbRotatedDimension
  0
DIMENSION
  5
161E
100
AcDbEntity
  8
0
  6
DASHED2
100
AcDbDimension
  2
*D47
 10
2001.389366
 20
907.056562
 30
0.0
 11
1786.389366
 21
919.160939
 31
0.0
 70
    32
  3
STANDARD_WS
100
AcDbAlignedDimension
 13
1571.389366
 23
817.87257
 33
0.0
 14
2001.389366
 24
817.87257
 34
0.0
100
AcDbRotatedDimension
1001
ACAD
1000
DSTYLE
1002
{
1070
    75
1070
     1
1070
   287
1070
     4
1002
}
  0
ENDSEC
  0
SECTION
  2
OBJECTS
  0
DICTIONARY
  5
C
100
AcDbDictionary
  3
ACAD_GROUP
350
D
  3
ACAD_MLINESTYLE
350
1B
  3
ACDBVARIABLEDICTIONARY
350
33
  3
CONTENTDICTIONARY
350
23
  0
DICTIONARY
  5
D
102
{ACAD_REACTORS
330
C
102
}
100
AcDbDictionary
  0
DICTIONARY
  5
1B
102
{ACAD_REACTORS
330
C
102
}
100
AcDbDictionary
  3
STANDARD
350
1C
  0
DICTIONARY
  5
33
102
{ACAD_REACTORS
330
C
102
}
100
AcDbDictionary
  3
DIMADEC
350
34
  0
DICTIONARY
  5
23
102
{ACAD_REACTORS
330
C
102
}
100
AcDbDictionary
  0
MLINESTYLE
  5
1C
102
{ACAD_REACTORS
330
1B
102
}
100
AcDbMlineStyle
  2
STANDARD
 70
     0
  3

 62
   256
 51
90.0
 52
90.0
 71
     2
 49
0.5
 62
   256
  6
BYLAYER
 49
-0.5
 62
   256
  6
BYLAYER
  0
DICTIONARYVAR
  5
34
102
{ACAD_REACTORS
330
33
102
}
100
DictionaryVariables
280
     0
  1
0
  0
ENDSEC
  0
EOF
